ВАЖНО! Сайт скоро заблокируют! Подписывайся на наш канал в Telegram https://t.me/torrentok и получи доступ к торрентам без ограничений!
.
Авторизация | Регистрация
bitok.xyz
Торрент скачать бесплатно Мультфильмы торрент скачать Sword Art Online Alternative: Gun Gale Online | Мастера Меча Онлайн: Альтернативная «Призрачная пуля» [2018, TV, 12 ep] BDRip 1080p 10-bit raw+rus торрент скачать бесплатно


    Sword Art Online Alternative: Gun Gale Online | Мастера Меча Онлайн: Альтернативная «Призрачная пуля» [2018, TV, 12 ep] BDRip 1080p 10-bit raw+rus торрент скачать бесплатно

    Дата: 16-02-2020, 05:00 | .torrent скачали: 0

    Sword Art Online Alternative: Gun Gale Online | Мастера Меча Онлайн: Альтернативная «Призрачная пуля» [2018, TV, 12 ep] BDRip 1080p 10-bit raw+rusТип: TV
    Жанр: Приключения, Фэнтези
    Продолжительность: 12 Эпизодов по 23 Мин.
    Количество серий: 12 Эпизодов
    Дата выпуска: c08.04.2018 по01.07.2018
    Автор оригинала: Сигусава Кэйити
    Режиссер: Сакой Масаюки
    Производство: Studio 3Hz/ Япония

    World-Art |AniDB |MyAnimelist |Shikimori

    Описание

    Карэн всегда чувствовала себя лишней в реальном мире... Как будто она не принадлежит ему. Из-за своего высокого роста (целых 183 см!) девушке было очень трудно завести подруг среди ровесниц. Но всё изменилось, когда Карэн познакомилась с небезызвестной VRMMORPG — Gun Gale Online. В мире GGO Карэн может сыграть за персонажа своей мечты — невысокую девочку, одетую во всё розовое. Но сможет ли Карэн найти друзей в этой экшен-игре?
    Автор: randomkun ©Shikimori
    Качество Видео: BDRip,
    Видео: AVC/x264 , 1920x1080, 23.976 fps, 7 417 kb/s, 0.149 bpp10-bit
    Язык Озвучки: Японский и Русский
    Озвучка: Многоголосая закадровая
    Аудио №1: AAC2.0 , 48.0 kHz, 192 kb/s(Kansai Studio) |Язык:
    Аудио №2: AAC2.0 , 48.0 kHz, 192 kb/s(AnilLbria) |Язык:
    Аудио №3: AAC2.0 , 48.0 kHz, 192 kb/s(Shiza Project) |Язык:
    Аудио №4: FLAC2.0 , 48.0 kHz, 1 504 kb/s 24-Bit(Original) |Язык:
    Субтитры: Надписи/Полные(YakuSub Studio)

    Скриншоты для ознакомления




    Внимание! Весь тайтл, в моём варианте, суммарно весит минимум204 ГБ
    1) Sword Art Online TV-1
    2) Sword Art Online Extra Edition
    3) Sword Art Online TV-2
    4) Sword Art Online Ordinal Scale
    5) Sword Art Online Gun Gale Online(Эта раздача)
    6) Sword Art Online Alicization TV
    7) Sword Art Online Alicization - War of Underworld TV-1(После появления BDRip)
    8) Sword Art Online Alicization - War of Underworld TV-2(После появления BDRip) (Анонс)
    Все серии пронумерованы для удобства просмотра в хронологическом порядке. Можно всё закинуть в одну папку и наслаждаться непрерывным просмотром.
    01. Squad Jam (Схватка отрядов)
    02. GGO (GGO)
    03. Fan Letter (Письмо Фаната)
    04. Death Game (Смертельная Игра)
    05. Leave the Last Battle to Me (Предоставь остальное сражение мне!)
    06. SAO Loser (Неудачник SAO)
    07. Second Squad Jam (Вторая Схватка Отрядов)
    08. Booby Trap (Растяжка)
    09. Ten-Minute Massacre (10-ти минутная бойня)
    10. The Devil`s Comeback (Воскрешение дьявола)
    11. Psycho Llenn (Ярость LLENN)
    12. Applause (Аплодисменты)

    General
    Unique ID : 279023099291267397306756500746309463600 (0xD1E9E4EAF3A2D3EA758F8B0366BFEE30)
    Complete name : J: АнимеМастера Меча Онлайн (Sword Art Online) BDRip (2012-2020)1. Squad Jam (Схватка отрядов).mkv
    Format : Matroska
    Format version : Version 4
    File size : 1.57 GiB
    Duration : 23 min 35 s
    Overall bit rate mode : Variable
    Overall bit rate : 9 506 kb/s
    Encoded date : UTC 2019-11-02 06: 11: 56
    Writing application : mkvmerge v38.0.0 (\'The Silent Type\') 64-bit
    Writing library : libebml v1.3.9 + libmatroska v1.5.2
    Attachments : EUR___DM.TTF/MetaPro-Bold.otf/segoeuib.ttf/segoeuiz.ttf/tahoma.ttf
    Video
    ID : 1
    Format : AVC
    Format/Info : Advanced Video Codec
    Format profile : High 10@L5
    Format settings : CABAC/16 Ref Frames
    Format settings, CABAC : Yes
    Format settings, Reference : 16 frames
    Codec ID : V_MPEG4/ISO/AVC
    Duration : 23 min 35 s
    Bit rate : 7 417 kb/s
    Width : 1 920 pixels
    Height : 1 080 pixels
    Display aspect ratio : 16: 9
    Frame rate mode : Constant
    Frame rate : 23.976 (24000/1001) FPS
    Color space : YUV
    Chroma subsampling : 4: 2: 0
    Bit depth : 10 bits
    Scan type : Progressive
    Bits/(Pixel*Frame) : 0.149
    Stream size : 1.22 GiB (78%)
    Writing library : x264 core 155 r2901M 7d0ff22 (DJATOM\'s mod)
    Encoding settings : cabac=1/ref=16/deblock=1: 1: -1/analyse=0x3: 0x113/me=umh/subme=10/psy=1/fade_compensate=0.00/psy_rd=0.90: 0.00/mixed_ref=1/me_range=32/chroma_me=1/trellis=2/8x8dct=1/cqm=0/deadzone=21, 11/fast_pskip=1/chroma_qp_offset=-2/threads=12/lookahead_threads=3/sliced_threads=0/nr=0/decimate=1/interlaced=0/bluray_compat=0/constrained_intra=0/bframes=16/b_pyramid=2/b_adapt=2/b_bias=0/direct=1/weightb=1/open_gop=0/weightp=2/keyint=240/keyint_min=23/scenecut=40/intra_refresh=0/rc=crf/mbtree=0/crf=14.2000/qcomp=0.70/qpmin=0/qpmax=81/qpstep=4/ip_ratio=1.40/pb_ratio=1.30/aq=3: 0.88
    Language : Japanese
    Default : Yes
    Forced : No
    Color range : Limited
    Color primaries : BT.709
    Transfer characteristics : BT.709
    Matrix coefficients : BT.709
    Audio #1
    ID : 2
    Format : AAC LC
    Format/Info : Advanced Audio Codec Low Complexity
    Codec ID : A_AAC-2
    Duration : 23 min 35 s
    Bit rate : 192 kb/s
    Channel(s) : 2 channels
    Channel layout : L R
    Sampling rate : 48.0 kHz
    Frame rate : 46.875 FPS (1024 SPF)
    Compression mode : Lossy
    Stream size : 31.9 MiB (2%)
    Title : Kansai Studio
    Language : Russian
    Default : Yes
    Forced : No
    Audio #2
    ID : 3
    Format : AAC LC
    Format/Info : Advanced Audio Codec Low Complexity
    Codec ID : A_AAC-2
    Duration : 23 min 34 s
    Bit rate : 192 kb/s
    Channel(s) : 2 channels
    Channel layout : L R
    Sampling rate : 48.0 kHz
    Frame rate : 46.875 FPS (1024 SPF)
    Compression mode : Lossy
    Delay relative to video : 9 ms
    Stream size : 32.0 MiB (2%)
    Title : HectoR Sharon Hekomi Aemi Amikiri (AniLibria)
    Language : Russian
    Default : No
    Forced : No
    Audio #3
    ID : 4
    Format : AAC LC
    Format/Info : Advanced Audio Codec Low Complexity
    Codec ID : A_AAC-2
    Duration : 23 min 35 s
    Bit rate : 192 kb/s
    Channel(s) : 2 channels
    Channel layout : L R
    Sampling rate : 48.0 kHz
    Frame rate : 46.875 FPS (1024 SPF)
    Compression mode : Lossy
    Stream size : 32.4 MiB (2%)
    Title : Daelit NIKITOS OkanaTsoy Abe (Shiza Project)
    Language : Russian
    Default : No
    Forced : No
    Audio #4
    ID : 5
    Format : FLAC
    Format/Info : Free Lossless Audio Codec
    Codec ID : A_FLAC
    Duration : 23 min 35 s
    Bit rate mode : Variable
    Bit rate : 1 504 kb/s
    Channel(s) : 2 channels
    Channel layout : L R
    Sampling rate : 48.0 kHz
    Frame rate : 11.719 FPS (4096 SPF)
    Bit depth : 24 bits
    Compression mode : Lossless
    Stream size : 254 MiB (16%)
    Title : Original
    Writing library : libFLAC 1.3.2 (UTC 2017-01-01)
    Language : Japanese
    Default : No
    Forced : No
    Text #1
    ID : 6
    Format : ASS
    Codec ID : S_TEXT/ASS
    Codec ID/Info : Advanced Sub Station Alpha
    Duration : 4 s 590 ms
    Bit rate : 224 b/s
    Count of elements : 1
    Compression mode : Lossless
    Stream size : 129 Bytes (0%)
    Title : Forced (YakuSub Studio)
    Language : Russian
    Default : Yes
    Forced : No
    Text #2
    ID : 7
    Format : ASS
    Codec ID : S_TEXT/ASS
    Codec ID/Info : Advanced Sub Station Alpha
    Duration : 22 min 3 s
    Bit rate : 165 b/s
    Count of elements : 343
    Compression mode : Lossless
    Stream size : 26.8 KiB (0%)
    Title : Full (YakuSub Studio)
    Language : Russian
    Default : No
    Forced : No
    Menu
    00: 00: 00.000 : en: Intro
    00: 01: 28.005 : en: OP
    00: 02: 58.053 : en: A
    00: 12: 16.069 : en: B
    00: 22: 05.074 : en: ED
    Время раздачи: С 8: 00 по 18: 00 МСК (до появления первых 3-5 скачавших)
    Понравился релиз? Ставь Оценку и нажми Спасибо
    Это серьёзно меня мотивирует делать подобные релизы.

    За ретайминг звука и субтитров огромное спасибо DS2902
    Полный список ретаймов


    Онлайн видео Sword Art Online Alternative: Gun Gale Online


    Sword Art Online Alternative: Gun Gale Online | Мастера Меча Онлайн: Альтернативная «Призрачная пуля» [2018, TV, 12 ep] BDRip 1080p 10-bit raw+rus торрент скачать бесплатно
    Рейтинг →
     (голосов: 1, оценка 4/5, голосовать можно 1 раз )

    Другие торренты по теме:

  • Sword Art Online: Alicization | Sword Art Online: Alicization | Мастера Меча Онлайн: Алисизация [2018, TV, 1 из 12] WEBRip 1080p raw+rus
  • Sword Art Online: Alicization 2 / Sword Art Online: Alicization - War of Underworld / Мастера меча онлайн: Алисизация - Война в Подмирье [2019, TV, 1 из 23] WEBRip 720p raw
  • Sword Art Online Alternative: Gun Gale Online Squad Jam | GunGale Online: "Схватка отрядов" (2014) [1 том] [Ранобэ] [Русский] [DOCX, FB2, EPUB, JPG] [incomplete]
  • Sword Art Online Alternative: Gun Gale Online / Мастера меча онлайн альтернатива: Призрачная Пуля Онлайн [2018, TV, 1 из 12] HDTV 720p raw
  • Sword Art Online Alternative: Gun Gale Online / Мастера меча онлайн: Альтернативная «Призрачная пуля» [2018, TV, 6 из 12 + OVA] WEB-DL 720p Raw+Rus
  • Sword Art Online Alternative: Gun Gale Online | Мастера меча онлайн: Альтернативная «Призрачная пуля» [2018, TV, 2 из 12 эп.] BDrip 1080p raw
  • Sword Art Online II / Мастера меча онлайн 2 [2014, TV, 12 из 24] HDTV 720p raw
  • Sword Art Online II / SAO II / Мастера меча онлайн II [2014, TV, 12 из 24] HDTV 720p Raw+Rus


    • Комментарии (0):

      Информация

      Информация

        Посетители, находящиеся в группе Гости, не могут оставлять комментарии в данной новости.

        ↓ Меню




        Популярное

        Металионы / Metalions (2018-2019) WEB-DLRip [H.264 / 720p-LQ] (сезон 1, серии 1-52 из 52) [Обновляемая]

        (скачиваний: 11)
        Фиксики против Кработов (2019) WEB-DL [H.264 / 1080p-LQ]

        (скачиваний: 10)
        Роботы-пожарные / Fire Robo (2016) WEB-DLRip [H.264 / 720p-LQ] (сезон 1, серии 1-26 из 26) [Обновляемая]

        (скачиваний: 8)
        Фиксики против Кработов (2019) WEB-DLRip

        (скачиваний: 7)
        Жила-была царевна (2015-2019) WEB-DLRip [H.264 / 720p-LQ] (сезон 1, серии 1-18 из 26) [Обновляемая]

        (скачиваний: 7)
        Лея Уотерс | Переключение на силу. Как научиться видеть в детях сильные стороны, чтобы помочь им расцвести (2019) [EPUB]

        (скачиваний: 5)
        Kaze no Na wa Amnesia / A Wind Named Amnesia / Ветер амнезии [1990, MV] DVDRip raw

        (скачиваний: 5)
        Канакина В. П., Горецкий В. Г. Электронное приложение к учебнику «Русский язык», 2 класс (2012) [ISO] скачать через торрент бесплатно

        (скачиваний: 5)
        Александр Нилл | Воспитание свободой. Школа Саммерхилл (2020) [EPUB]

        (скачиваний: 5)
        Роберт Кийосаки | Богатый папа, бедный папа для подростков (2014) [PDF, FB2]

        (скачиваний: 5)