Подписывайся на наш канал в Telegram https://t.me/torrentok и получи доступ к торрентам без ограничений!
.
Авторизация | Регистрация
bitok.xyz
Торрент скачать бесплатно Мультфильмы торрент скачать Sword Art Online: Ordinal Scale | Мастера Меча Онлайн: Порядковый Ранг [2017, Movie] BDRip 1080p 10-bit raw+rus торрент скачать бесплатно


    Sword Art Online: Ordinal Scale | Мастера Меча Онлайн: Порядковый Ранг [2017, Movie] BDRip 1080p 10-bit raw+rus торрент скачать бесплатно

    Дата: 16-02-2020, 05:00 | .torrent скачали: 0

    Sword Art Online: Ordinal Scale | Мастера Меча Онлайн: Порядковый Ранг [2017, Movie] BDRip 1080p 10-bit raw+rusТип: Movie
    Жанр: Приключения, Фэнтези
    Продолжительность: 02: 00: 12
    Дата выпуска: 18.02.2017
    Автор оригинала: Кавахара Рэки
    Режиссер: Ито Томохико
    Производство: A-1 Pictures/ Япония

    World-Art |AniDB |MyAnimelist |Shikimori

    Описание

    2026 год, на смену Амусферы приходит Augma — устройство расширенной реальности, которая вместо функции полного погружения, использует дополненную реальность, что делает процесс использования устройства безопаснее и удобнее. Благодаря этому новое устройство расширенной реальности получило большую популярность, а вместе с ней и Ordinal Scale — ARMMORPG, разработанная специально для Augma, особенностью которой является OS — игровая функция, при которой все игроки получают ранг, основанный на их порядковом номере. Как и ожидалось, Кирито с друзьями начинают играть в Ordinal Scale, но вскоре они узнают, что Порядковый ранг — это вовсе не веселье и игры...
    Автор: Sfairat, Syllesquee ©Shikimori
    Качество Видео: BDRip,
    Видео: AVC/x264 , 1920x1080, 23.976 fps, 17.4 Mb/s, 0.349 bpp10-bit
    Язык Озвучки: Японский и Русский
    Озвучка: Одноголосая, Многоголосая закадровая
    Аудио №1: AC32.0 , 48.0 kHz, 192 kb/s(Kansai Studio) |Язык:
    Аудио №2: AAC2.0 , 48.0 kHz, 192 kb/s(AniLibria) |Язык:
    Аудио №3: AAC2.0 , 48.0 kHz, 192 kb/s(AniDub) |Язык:
    Аудио №4: AAC2.0 , 48.0 kHz, 192 kb/s(GetSmart) |Язык:
    Аудио №6: FLAC2.0 , 48.0 kHz, 1 391 kb/s 24-Bit(Original) |Язык:
    Аудио №6: FLAC5.1 , 48.0 kHz, 3 195 kb/s 24-Bit(Original) |Язык:
    Субтитры: Надписи/Полные(Русский)

    Скриншоты для ознакомления




    Внимание! Весь тайтл, в моём варианте, суммарно весит минимум204 ГБ
    1) Sword Art Online TV-1
    2) Sword Art Online Extra Edition
    3) Sword Art Online TV-2
    4) Sword Art Online Ordinal Scale(Эта раздача)
    5) Sword Art Online Gun Gale Online
    6) Sword Art Online Alicization TV
    7) Sword Art Online Alicization - War of Underworld TV-1(После появления BDRip)
    8) Sword Art Online Alicization - War of Underworld TV-2(После появления BDRip) (Анонс)
    Все серии пронумерованы для удобства просмотра в хронологическом порядке. Можно всё закинуть в одну папку и наслаждаться непрерывным просмотром.
    General
    Unique ID : 317968380790167349193967458801726297798 (0xEF367B8B3A88FC5D5E7186282D3C96C6)
    Complete name : J: АнимеМастера Меча Онлайн (Sword Art Online) BDRip (2012-2020)(04)00 (Movie). Ordinal Scale (Порядковый ранг).mkv
    Format : Matroska
    Format version : Version 4
    File size : 19.1 GiB
    Duration : 2 h 0 min
    Overall bit rate mode : Variable
    Overall bit rate : 22.7 Mb/s
    Encoded date : UTC 2019-10-31 14: 13: 20
    Writing application : mkvmerge v38.0.0 (\'The Silent Type\') 64-bit
    Writing library : libebml v1.3.9 + libmatroska v1.5.2
    Attachments : BOOKOSB.TTF/BOOKOSBI.TTF/BOOKOSI.TTF/MyriadPro-Bold.otf/MyriadPro-BoldCond.otf/MyriadPro-BoldCondIt.otf/MyriadPro-BoldIt.otf/MyriadPro-Cond.otf/MyriadPro-CondIt.otf/MyriadPro-It.otf/MyriadPro-Regular.otf/MyriadPro-Semibold.otf/MyriadPro-SemiboldIt.otf/pt-sansb.ttf/SAOUI-Bold.otf/SAOUI-Regular.otf/SAOUIWelcome-Bold.otf/SAOUIWelcome-Regular.otf/segoepr.ttf/segoeprb.ttf/segoesc.ttf/segoescb.ttf/segoeui.ttf/segoeuib.ttf/segoeuii.ttf/segoeuil.ttf/SEGOEUISL.TTF/segoeuiz.ttf/seguisb.ttf/tahoma.ttf/tahomabd.ttf/BankGothic Lt BT Light.ttf/bankrus.ttf/BOOKOS.TTF
    Video
    ID : 1
    Format : AVC
    Format/Info : Advanced Video Codec
    Format profile : High 10@L5
    Format settings : CABAC/4 Ref Frames
    Format settings, CABAC : Yes
    Format settings, Reference : 4 frames
    Codec ID : V_MPEG4/ISO/AVC
    Duration : 2 h 0 min
    Bit rate : 17.4 Mb/s
    Width : 1 920 pixels
    Height : 1 080 pixels
    Display aspect ratio : 16: 9
    Frame rate mode : Constant
    Frame rate : 23.976 (24000/1001) FPS
    Color space : YUV
    Chroma subsampling : 4: 2: 0
    Bit depth : 10 bits
    Scan type : Progressive
    Bits/(Pixel*Frame) : 0.349
    Stream size : 14.6 GiB (76%)
    Writing library : x264 core 148 r2597M e86f3a1 (DJATOM\'s build)
    Encoding settings : cabac=1/ref=4/deblock=1: 1: -1/analyse=0x3: 0x113/me=umh/subme=9/psy=1/fade_compensate=0.00/psy_rd=1.00: 0.00/mixed_ref=1/me_range=32/chroma_me=1/trellis=2/8x8dct=1/cqm=0/deadzone=21, 11/fast_pskip=1/chroma_qp_offset=-2/threads=34/lookahead_threads=5/sliced_threads=0/nr=0/decimate=1/interlaced=0/bluray_compat=0/constrained_intra=0/bframes=9/b_pyramid=2/b_adapt=2/b_bias=0/direct=1/weightb=1/open_gop=0/weightp=2/keyint=240/keyint_min=23/scenecut=40/intra_refresh=0/rc=crf/mbtree=0/crf=15.0000/qcomp=0.72/qpmin=0/qpmax=81/qpstep=4/ip_ratio=1.40/pb_ratio=1.30/aq=1: 0.85
    Language : Japanese
    Default : Yes
    Forced : No
    Color range : Limited
    Color primaries : BT.709
    Transfer characteristics : BT.709
    Matrix coefficients : BT.709
    Audio #1
    ID : 2
    Format : AC-3
    Format/Info : Audio Coding 3
    Commercial name : Dolby Digital
    Codec ID : A_AC3
    Duration : 2 h 0 min
    Bit rate mode : Constant
    Bit rate : 192 kb/s
    Channel(s) : 2 channels
    Channel layout : L R
    Sampling rate : 48.0 kHz
    Frame rate : 31.250 FPS (1536 SPF)
    Compression mode : Lossy
    Delay relative to video : 27 ms
    Stream size : 165 MiB (1%)
    Title : Kansai Studio
    Language : Russian
    Service kind : Complete Main
    Default : Yes
    Forced : No
    Audio #2
    ID : 3
    Format : AAC LC
    Format/Info : Advanced Audio Codec Low Complexity
    Codec ID : A_AAC-2
    Duration : 2 h 0 min
    Bit rate : 192 kb/s
    Channel(s) : 2 channels
    Channel layout : L R
    Sampling rate : 48.0 kHz
    Frame rate : 46.875 FPS (1024 SPF)
    Compression mode : Lossy
    Delay relative to video : 13 ms
    Stream size : 165 MiB (1%)
    Title : AniLibria
    Language : Russian
    Default : No
    Forced : No
    Audio #3
    ID : 4
    Format : AAC LC
    Format/Info : Advanced Audio Codec Low Complexity
    Codec ID : A_AAC-2
    Duration : 2 h 0 min
    Bit rate : 192 kb/s
    Channel(s) : 2 channels
    Channel layout : L R
    Sampling rate : 48.0 kHz
    Frame rate : 46.875 FPS (1024 SPF)
    Compression mode : Lossy
    Stream size : 165 MiB (1%)
    Title : AniDub
    Language : Russian
    Default : No
    Forced : No
    Audio #4
    ID : 5
    Format : AAC LC
    Format/Info : Advanced Audio Codec Low Complexity
    Codec ID : A_AAC-2
    Duration : 2 h 0 min
    Bit rate : 192 kb/s
    Channel(s) : 2 channels
    Channel layout : L R
    Sampling rate : 48.0 kHz
    Frame rate : 46.875 FPS (1024 SPF)
    Compression mode : Lossy
    Delay relative to video : 19 ms
    Stream size : 165 MiB (1%)
    Title : Persona99
    Language : Russian
    Default : No
    Forced : No
    Audio #5
    ID : 6
    Format : FLAC
    Format/Info : Free Lossless Audio Codec
    Codec ID : A_FLAC
    Duration : 2 h 0 min
    Bit rate mode : Variable
    Bit rate : 1 391 kb/s
    Channel(s) : 2 channels
    Channel layout : L R
    Sampling rate : 48.0 kHz
    Frame rate : 11.719 FPS (4096 SPF)
    Bit depth : 24 bits
    Compression mode : Lossless
    Stream size : 1.17 GiB (6%)
    Title : Original 2.0
    Writing library : libFLAC 1.3.1 (UTC 2014-11-25)
    Language : Japanese
    Default : No
    Forced : No
    Audio #6
    ID : 7
    Format : FLAC
    Format/Info : Free Lossless Audio Codec
    Codec ID : A_FLAC
    Duration : 2 h 0 min
    Bit rate mode : Variable
    Bit rate : 3 195 kb/s
    Channel(s) : 6 channels
    Channel layout : L R C LFE Ls Rs
    Sampling rate : 48.0 kHz
    Frame rate : 11.719 FPS (4096 SPF)
    Bit depth : 24 bits
    Compression mode : Lossless
    Stream size : 2.68 GiB (14%)
    Title : Original 5.1
    Writing library : libFLAC 1.3.1 (UTC 2014-11-25)
    Language : Japanese
    Default : No
    Forced : No
    Text #1
    ID : 8
    Format : ASS
    Codec ID : S_TEXT/ASS
    Codec ID/Info : Advanced Sub Station Alpha
    Duration : 1 h 56 min
    Bit rate : 586 b/s
    Count of elements : 2181
    Compression mode : Lossless
    Stream size : 501 KiB (0%)
    Title : 2nd Division (Forced)
    Language : Russian
    Default : Yes
    Forced : No
    Text #2
    ID : 9
    Format : ASS
    Codec ID : S_TEXT/ASS
    Codec ID/Info : Advanced Sub Station Alpha
    Duration : 1 h 59 min
    Bit rate : 681 b/s
    Count of elements : 3472
    Compression mode : Lossless
    Stream size : 596 KiB (0%)
    Title : 2nd Division (Full)
    Language : Russian
    Default : No
    Forced : No
    Menu
    00: 00: 00.000 : en: Avant
    00: 04: 06.246 : en: Part A
    00: 11: 04.664 : en: Part B
    00: 19: 37.134 : en: Part C
    00: 25: 59.307 : en: Part D
    00: 32: 03.004 : en: Part E
    00: 38: 33.728 : en: Part F
    00: 42: 36.887 : en: Part G
    00: 45: 19.842 : en: Part H
    00: 51: 59.991 : en: Part I
    00: 55: 47.344 : en: Part J
    01: 02: 52.518 : en: Part K
    01: 09: 04.723 : en: Part L
    01: 19: 41.401 : en: Part M
    01: 23: 58.366 : en: Part N
    01: 26: 41.029 : en: Part O
    01: 33: 49.665 : en: Part P
    01: 39: 29.964 : en: Part Q
    01: 46: 47.234 : en: Part R
    01: 50: 46.681 : en: Part S
    01: 54: 33.533 : en: ED
    01: 59: 13.646 : en: Part T
    Время раздачи: С 8: 00 по 18: 00 МСК (до появления первых 3-5 скачавших)
    Понравился релиз? Ставь Оценку и нажми Спасибо
    Это серьёзно меня мотивирует делать подобные релизы.

    За ретайминг звука и субтитров огромное спасибо DS2902
    Полный список ретаймов


    Онлайн видео Sword Art Online: Ordinal Scale


    Sword Art Online: Ordinal Scale | Мастера Меча Онлайн: Порядковый Ранг [2017, Movie] BDRip 1080p 10-bit raw+rus торрент скачать бесплатно
    Рейтинг →
     (голосов: 1, оценка 3/5, голосовать можно 1 раз )

    Другие торренты по теме:

  • Sword Art Online: Alicization | Sword Art Online: Alicization | Мастера Меча Онлайн: Алисизация [2018, TV, 1 из 12] WEBRip 1080p raw+rus
  • Sword Art Online: Alicization 2 / Sword Art Online: Alicization - War of Underworld / Мастера меча онлайн: Алисизация - Война в Подмирье [2019, TV, 1 из 23] WEBRip 720p raw
  • Sword Art Online Alternative: Gun Gale Online Squad Jam | GunGale Online: "Схватка отрядов" (2014) [1 том] [Ранобэ] [Русский] [DOCX, FB2, EPUB, JPG] [incomplete]
  • Sword Art Online Alternative: Gun Gale Online / Мастера меча онлайн альтернатива: Призрачная Пуля Онлайн [2018, TV, 1 из 12] HDTV 720p raw
  • Sword Art Online Alternative: Gun Gale Online / Мастера меча онлайн: Альтернативная «Призрачная пуля» [2018, TV, 6 из 12 + OVA] WEB-DL 720p Raw+Rus
  • Sword Art Online Alternative: Gun Gale Online | Мастера меча онлайн: Альтернативная «Призрачная пуля» [2018, TV, 2 из 12 эп.] BDrip 1080p raw
  • Sword Art Online Alternative: Gun Gale Online | Мастера Меча Онлайн: Альтернативная «Призрачная пуля» [2018, TV, 12 ep] BDRip 1080p 10-bit raw+rus
  • Sword Art Online II / Мастера меча онлайн 2 [2014, TV, 12 из 24] HDTV 720p raw


    • Комментарии (0):

      Информация

      Информация

        Посетители, находящиеся в группе Гости, не могут оставлять комментарии в данной новости.

        ↓ Меню




        Популярное