ВАЖНО! Сайт скоро заблокируют! Подписывайся на наш канал в Telegram https://t.me/torrentok и получи доступ к торрентам без ограничений!
.
Авторизация | Регистрация
bitok.xyz
Торрент скачать бесплатно Мультфильмы торрент скачать Sword Art Online II | Мастера Меча Онлайн II [ТВ-2][2014, TV, 24 ep + 1 sp.] BDRip 1080p 10-bit raw+rus торрент скачать бесплатно


    Sword Art Online II | Мастера Меча Онлайн II [ТВ-2][2014, TV, 24 ep + 1 sp.] BDRip 1080p 10-bit raw+rus торрент скачать бесплатно

    Дата: 16-02-2020, 05:00 | .torrent скачали: 0

    Sword Art Online II | Мастера Меча Онлайн II [ТВ-2][2014, TV, 24 ep + 1 sp.] BDRip 1080p 10-bit raw+rusТип: TV
    Жанр: Приключения, Фэнтези, Романтика
    Продолжительность: 25 Эпизодов по 23 Мин.
    Количество серий: 25 Эпизодов
    Дата выпуска: c05.07.2014 по20.12.2014
    Автор оригинала: Кавахара Рэки
    Режиссер: Ито Томохико
    Производство: A-1 Pictures/ Япония

    World-Art |AniDB |MyAnimelist |Shikimori

    Описание

    Мрачный гений Каяба сполна расплатился за свои ошибки, прекрасная Асуна освобождена, негодяй Суго наказан, но Мировое Древо все так же высится в Альфхейме, а игровых виртуальных миров с каждым годом становится больше. Да, человечество расширяет среду обитания, куда можно сбежать от непосильного гнета реальности, попутно многое узнавая о работе собственного мозга и разума. Что нельзя остановить, лучше возглавить: примерно так юный Кадзуто Киригая, больше известный как Кирито, поведал подруге на очередном свидании. Асуна, разумеется, согласилась, ведь главного-то милый ей не сказал!
    А забыл лукавый Кирито рассказать о том, что подписался на участие в новомодной игре Буря стволов онлайн - соревновательном шутере, где заработанную игровую валюту можно переводить в привычную. Неудивительно, что кругом полно сильных игроков, да вот кто-то нехороший, действуя из игры, стал убивать их в реальном мире. Это считалось невозможным, ведь геймеры давно сменили шлемы-тостеры времен САО на абсолютно безопасные интерфейсы. Ниточки явно тянутся из прошлого – тут и пригодится герой в черном, который не смог отказать другу из незаметных, но компетентных органов. Ради благого дела можно и по старинке мечом помахать, и стрелять поучиться, и даже заглянуть в родные миры – жить-то с Асуной все равно на что-то надо!
    Автор: Hollow ©World Art

    Качество Видео: BDRip,
    Видео: AVC/x264 , 1920x1080, 23.976 fps, 9 268 kb/s, 0.186 bpp10-bit
    Язык Озвучки: Японский и Русский
    Озвучка: Одноголосая, Двухголосая, Многоголосая закадровая
    Аудио №1: AC32.0 , 48.0 kHz, 192 kb/s(Kansai Studio) |Язык:
    Аудио №2: AC32.0 , 48.0 kHz, 192 kb/s(AniDub) |Язык:
    Аудио №3: AAC2.0 , 48.0 kHz, 192 kb/s(Renegade Team) |Язык:
    Аудио №4: AC32.0 , 48.0 kHz, 192 kb/s(AniFilm) |Язык:
    Аудио №5: AC32.0 , 48.0 kHz, 192 kb/s(Shiza Project) |Язык:
    Аудио №6: AC32.0 , 48.0 kHz, 192 kb/s(Onibaku) |Язык:
    Аудио №7: AC32.0 , 48.0 kHz, 192 kb/s(Animedia) |Язык:
    Аудио №8: AC32.0 , 48.0 kHz, 192 kb/s(GetSmart) |Язык:
    Аудио №9: AC32.0 , 48.0 kHz, 192 kb/s(AnilLbria) |Язык:
    Аудио №10: AC32.0 , 48.0 kHz, 192 kb/s(OpenDub) |Язык:
    Аудио №11: FLAC2.0 , 48.0 kHz, 669 kb/s 16-Bit(Original) |Язык:
    Субтитры: Надписи/Полные(Evafan, Uker, Jaga)

    Скриншоты для ознакомления





    Внимание! Весь тайтл, в моём варианте, суммарно весит минимум204 ГБ
    1) Sword Art Online TV-1
    2) Sword Art Online Extra Edition
    3) Sword Art Online TV-2(Эта раздача)
    4) Sword Art Online Ordinal Scale
    5) Sword Art Online Gun Gale Online
    6) Sword Art Online Alicization TV
    7) Sword Art Online Alicization - War of Underworld TV-1(После появления BDRip)
    8) Sword Art Online Alicization - War of Underworld TV-2(После появления BDRip) (Анонс)
    Все серии пронумерованы для удобства просмотра в хронологическом порядке. Можно всё закинуть в одну папку и наслаждаться непрерывным просмотром.
    01. The World of Guns (Мир оружия)
    02. Cold-Hearted Sniper (Ледяной снайпер)
    03. Memories of Fresh Blood (Кровавые воспоминания)
    04. GGO (ГГО)
    05. Guns and Swords (Пистолет и клинок)
    06. Showdown in the Wilderness (Схватка в пустоши)
    07. Crimson Memories (Багровые воспоминания)
    08. Bullet of Bullets (Золотая пуля)
    09. Death Gun (Дэс Ган)
    10. Death Chaser (Убегая от смерти)
    11. What It Means To Be Strong (Цена силы)
    12. Bullet of a Phantom (Призрачная пуля)
    13. Phantom Bullet (Призрачная пуля, акт второй)
    14. One Little Step (Последний шаг)
    14, 5. Debriefing (Итоги)
    15. The Queen of the Lake (Владычица озера)
    16. The King of the Giants (Князь великанов)
    17. Excaliber (Экскалибр)
    18. Forest House (Домик в лесу)
    19. Zekken (Совершенный Меч)
    20. Sleeping Knights (Спящие рыцари)
    21. Swordman`s Memorial (Мемориал мечников)
    22. Journey`s End (Конец пути)
    23. Beginning of a Dream (Начало грёз)
    24. Mother`s Rosario (Мамина молитва)

    General
    Unique ID : 153196672960022636765553533583036380285 (0x73409B21BABD6045620F063E8D75F47D)
    Complete name : J: АнимеМастера Меча Онлайн (Sword Art Online) BDRip (2012-2020)(03)01 (TV-2). The World of Guns (Мир оружия).mkv
    Format : Matroska
    Format version : Version 4
    File size : 1.96 GiB
    Duration : 23 min 41 s
    Overall bit rate mode : Variable
    Overall bit rate : 11.9 Mb/s
    Encoded date : UTC 2019-10-31 10: 18: 07
    Writing application : mkvmerge v38.0.0 (\'The Silent Type\') 64-bit
    Writing library : libebml v1.3.9 + libmatroska v1.5.2
    Video
    ID : 1
    Format : AVC
    Format/Info : Advanced Video Codec
    Format profile : High10@L4.1
    Format settings : CABAC/4 Ref Frames
    Format settings, CABAC : Yes
    Format settings, Reference : 4 frames
    Codec ID : V_MPEG4/ISO/AVC
    Duration : 23 min 41 s
    Bit rate : 9 268 kb/s
    Width : 1 920 pixels
    Height : 1 080 pixels
    Display aspect ratio : 16: 9
    Frame rate mode : Constant
    Frame rate : 23.976 (24000/1001) FPS
    Color space : YUV
    Chroma subsampling : 4: 2: 0
    Bit depth : 10 bits
    Scan type : Progressive
    Bits/(Pixel*Frame) : 0.186
    Stream size : 1.53 GiB (78%)
    Writing library : x264 core 128 r2216 198a7ea
    Encoding settings : cabac=1/ref=4/deblock=1: -2: -2/analyse=0x3: 0x133/me=umh/subme=9/psy=1/psy_rd=1.00: 0.00/mixed_ref=1/me_range=32/chroma_me=1/trellis=2/8x8dct=1/cqm=0/deadzone=21, 11/fast_pskip=1/chroma_qp_offset=-2/threads=12/lookahead_threads=2/sliced_threads=0/nr=0/decimate=0/interlaced=0/bluray_compat=0/constrained_intra=0/bframes=12/b_pyramid=2/b_adapt=2/b_bias=0/direct=3/weightb=1/open_gop=0/weightp=2/keyint=250/keyint_min=23/scenecut=40/intra_refresh=0/rc=crf/mbtree=0/crf=16.0/qcomp=0.80/qpmin=0/qpmax=81/qpstep=4/ip_ratio=1.40/pb_ratio=1.30/aq=1: 0.80
    Language : Japanese
    Default : Yes
    Forced : No
    Audio #1
    ID : 2
    Format : AC-3
    Format/Info : Audio Coding 3
    Commercial name : Dolby Digital
    Codec ID : A_AC3
    Duration : 23 min 41 s
    Bit rate mode : Constant
    Bit rate : 192 kb/s
    Channel(s) : 2 channels
    Channel layout : L R
    Sampling rate : 48.0 kHz
    Frame rate : 31.250 FPS (1536 SPF)
    Compression mode : Lossy
    Stream size : 32.5 MiB (2%)
    Title : Kansai Studio
    Language : Russian
    Service kind : Complete Main
    Default : Yes
    Forced : No
    Audio #2
    ID : 3
    Format : AC-3
    Format/Info : Audio Coding 3
    Commercial name : Dolby Digital
    Codec ID : A_AC3
    Duration : 23 min 41 s
    Bit rate mode : Constant
    Bit rate : 192 kb/s
    Channel(s) : 2 channels
    Channel layout : L R
    Sampling rate : 48.0 kHz
    Frame rate : 31.250 FPS (1536 SPF)
    Compression mode : Lossy
    Stream size : 32.5 MiB (2%)
    Title : JAM Nika Lenina (AniDub)
    Language : Russian
    Service kind : Complete Main
    Default : No
    Forced : No
    Audio #3
    ID : 4
    Format : AC-3
    Format/Info : Audio Coding 3
    Commercial name : Dolby Digital
    Codec ID : A_AC3
    Duration : 23 min 41 s
    Bit rate mode : Constant
    Bit rate : 192 kb/s
    Channel(s) : 2 channels
    Channel layout : L R
    Sampling rate : 48.0 kHz
    Frame rate : 31.250 FPS (1536 SPF)
    Compression mode : Lossy
    Stream size : 32.5 MiB (2%)
    Title : Molibden, Azart, Lasik, Hyver, Koshka Bestiya, Zlo (Renegade Team)
    Language : Russian
    Service kind : Complete Main
    Default : No
    Forced : No
    Audio #4
    ID : 5
    Format : AC-3
    Format/Info : Audio Coding 3
    Commercial name : Dolby Digital
    Codec ID : A_AC3
    Duration : 23 min 41 s
    Bit rate mode : Constant
    Bit rate : 192 kb/s
    Channel(s) : 2 channels
    Channel layout : L R
    Sampling rate : 48.0 kHz
    Frame rate : 31.250 FPS (1536 SPF)
    Compression mode : Lossy
    Stream size : 32.5 MiB (2%)
    Title : ShadMG Акварелька Soer (AniFilm)
    Language : Russian
    Service kind : Complete Main
    Default : No
    Forced : No
    Audio #5
    ID : 6
    Format : AC-3
    Format/Info : Audio Coding 3
    Commercial name : Dolby Digital
    Codec ID : A_AC3
    Duration : 23 min 41 s
    Bit rate mode : Constant
    Bit rate : 192 kb/s
    Channel(s) : 2 channels
    Channel layout : L R
    Sampling rate : 48.0 kHz
    Frame rate : 31.250 FPS (1536 SPF)
    Compression mode : Lossy
    Stream size : 32.5 MiB (2%)
    Title : NIKITOS Лизавета Nyasheek Shuuma (Shiza Project)
    Language : Russian
    Service kind : Complete Main
    Default : No
    Forced : No
    Audio #6
    ID : 7
    Format : AC-3
    Format/Info : Audio Coding 3
    Commercial name : Dolby Digital
    Codec ID : A_AC3
    Duration : 23 min 41 s
    Bit rate mode : Constant
    Bit rate : 192 kb/s
    Channel(s) : 2 channels
    Channel layout : L R
    Sampling rate : 48.0 kHz
    Frame rate : 31.250 FPS (1536 SPF)
    Compression mode : Lossy
    Stream size : 32.5 MiB (2%)
    Title : Zendos Eladiel (Onibaku)
    Language : Russian
    Service kind : Complete Main
    Default : No
    Forced : No
    Audio #7
    ID : 8
    Format : AC-3
    Format/Info : Audio Coding 3
    Commercial name : Dolby Digital
    Codec ID : A_AC3
    Duration : 23 min 41 s
    Bit rate mode : Constant
    Bit rate : 192 kb/s
    Channel(s) : 2 channels
    Channel layout : L R
    Sampling rate : 48.0 kHz
    Frame rate : 31.250 FPS (1536 SPF)
    Compression mode : Lossy
    Stream size : 32.5 MiB (2%)
    Title : Nazel Freya OziRIST (Animedia)
    Language : Russian
    Service kind : Complete Main
    Default : No
    Forced : No
    Audio #8
    ID : 9
    Format : AC-3
    Format/Info : Audio Coding 3
    Commercial name : Dolby Digital
    Codec ID : A_AC3
    Duration : 23 min 41 s
    Bit rate mode : Constant
    Bit rate : 192 kb/s
    Channel(s) : 2 channels
    Channel layout : L R
    Sampling rate : 48.0 kHz
    Frame rate : 31.250 FPS (1536 SPF)
    Compression mode : Lossy
    Stream size : 32.5 MiB (2%)
    Title : Persona99 (GetSmart)
    Language : Russian
    Service kind : Complete Main
    Default : No
    Forced : No
    Audio #9
    ID : 10
    Format : AC-3
    Format/Info : Audio Coding 3
    Commercial name : Dolby Digital
    Codec ID : A_AC3
    Duration : 23 min 41 s
    Bit rate mode : Constant
    Bit rate : 192 kb/s
    Channel(s) : 2 channels
    Channel layout : L R
    Sampling rate : 48.0 kHz
    Frame rate : 31.250 FPS (1536 SPF)
    Compression mode : Lossy
    Stream size : 32.5 MiB (2%)
    Title : Manaoki Nuriko (AnilLbria)
    Language : Russian
    Service kind : Complete Main
    Default : No
    Forced : No
    Audio #10
    ID : 11
    Format : AC-3
    Format/Info : Audio Coding 3
    Commercial name : Dolby Digital
    Codec ID : A_AC3
    Duration : 23 min 41 s
    Bit rate mode : Constant
    Bit rate : 192 kb/s
    Channel(s) : 2 channels
    Channel layout : L R
    Sampling rate : 48.0 kHz
    Frame rate : 31.250 FPS (1536 SPF)
    Compression mode : Lossy
    Stream size : 32.5 MiB (2%)
    Title : S@thal Kira_Ksyll (OpenDub)
    Language : Russian
    Service kind : Complete Main
    Default : No
    Forced : No
    Audio #11
    ID : 12
    Format : FLAC
    Format/Info : Free Lossless Audio Codec
    Codec ID : A_FLAC
    Duration : 23 min 41 s
    Bit rate mode : Variable
    Bit rate : 669 kb/s
    Channel(s) : 2 channels
    Channel layout : L R
    Sampling rate : 48.0 kHz
    Frame rate : 11.719 FPS (4096 SPF)
    Bit depth : 16 bits
    Compression mode : Lossless
    Stream size : 113 MiB (6%)
    Title : Original
    Writing library : libFLAC 1.2.1 (UTC 2007-09-17)
    Language : Japanese
    Default : No
    Forced : No
    Text #1
    ID : 13
    Format : ASS
    Codec ID : S_TEXT/ASS
    Codec ID/Info : Advanced Sub Station Alpha
    Duration : 23 min 30 s
    Bit rate : 59 b/s
    Count of elements : 96
    Compression mode : Lossless
    Stream size : 10.2 KiB (0%)
    Title : Forced (Evafan, Uker, Jaga)
    Language : Russian
    Default : Yes
    Forced : No
    Text #2
    ID : 14
    Format : ASS
    Codec ID : S_TEXT/ASS
    Codec ID/Info : Advanced Sub Station Alpha
    Duration : 23 min 30 s
    Bit rate : 232 b/s
    Count of elements : 462
    Compression mode : Lossless
    Stream size : 40.1 KiB (0%)
    Title : Full (Evafan, Uker, Jaga)
    Language : Russian
    Default : No
    Forced : No
    Menu
    00: 00: 00.000 : : Prologue
    00: 03: 21.993 : : Part A
    00: 08: 27.965 : : Part B
    00: 22: 04.906 : : ED
    00: 23: 34.913 : : Preview
    Время раздачи: С 8: 00 по 18: 00 МСК (до появления первых 3-5 скачавших)
    Понравился релиз? Ставь Оценку и нажми Спасибо
    Это серьёзно меня мотивирует делать подобные релизы.

    За ретайминг звука и субтитров огромное спасибо DS2902
    Полный список ретаймов


    Онлайн видео Sword Art Online II


    Sword Art Online II | Мастера Меча Онлайн II [ТВ-2][2014, TV, 24 ep + 1 sp.] BDRip 1080p 10-bit raw+rus торрент скачать бесплатно
    Рейтинг →
     (голосов: 1, оценка 3/5, голосовать можно 1 раз )

    Другие торренты по теме:

  • Sword Art Online: Alicization | Sword Art Online: Alicization | Мастера Меча Онлайн: Алисизация [2018, TV, 1 из 12] WEBRip 1080p raw+rus
  • Sword Art Online: Alicization 2 / Sword Art Online: Alicization - War of Underworld / Мастера меча онлайн: Алисизация - Война в Подмирье [2019, TV, 1 из 23] WEBRip 720p raw
  • Sword Art Online Alternative: Gun Gale Online Squad Jam | GunGale Online: "Схватка отрядов" (2014) [1 том] [Ранобэ] [Русский] [DOCX, FB2, EPUB, JPG] [incomplete]
  • Sword Art Online Alternative: Gun Gale Online / Мастера меча онлайн альтернатива: Призрачная Пуля Онлайн [2018, TV, 1 из 12] HDTV 720p raw
  • Sword Art Online Alternative: Gun Gale Online / Мастера меча онлайн: Альтернативная «Призрачная пуля» [2018, TV, 6 из 12 + OVA] WEB-DL 720p Raw+Rus
  • Sword Art Online Alternative: Gun Gale Online | Мастера меча онлайн: Альтернативная «Призрачная пуля» [2018, TV, 2 из 12 эп.] BDrip 1080p raw
  • Sword Art Online Alternative: Gun Gale Online | Мастера Меча Онлайн: Альтернативная «Призрачная пуля» [2018, TV, 12 ep] BDRip 1080p 10-bit raw+rus
  • Sword Art Online II / Мастера меча онлайн 2 [2014, TV, 12 из 24] HDTV 720p raw


    • Комментарии (0):

      Информация

      Информация

        Посетители, находящиеся в группе Гости, не могут оставлять комментарии в данной новости.

        ↓ Меню




        Популярное

        Роботы-пожарные / Fire Robo (2016) WEB-DLRip [H.264 / 720p-LQ] (сезон 1, серии 1-26 из 26) [Обновляемая]

        (скачиваний: 5)
        Сергей Матвеев | Полный курс английского языка для лентяев (2016) [PDF]

        (скачиваний: 4)
        Жила-была царевна (2015-2019) WEB-DLRip [H.264 / 720p-LQ] (сезон 1, серии 1-18 из 26) [Обновляемая]

        (скачиваний: 3)
        Gekijouban KanColle | Kantai Collection Movie | Fleet Girls Collection: Movie Sequence| Коллекционная флотилия на большом экране [2016, Movie] BDrip 720p 10bit raw

        (скачиваний: 3)
        Роберт Кийосаки | Богатый папа, бедный папа для подростков (2014) [PDF, FB2]

        (скачиваний: 3)
        Серия книг | Образовательная манга (2010 - 2015) [PDF]

        (скачиваний: 3)
        Анна Зайцева, Анастасия Дубасова | Чудесный пластилин: лепим вместе с детьми (2011) [PDF]

        (скачиваний: 2)
        Королевская академия / Regal Academy (2016) SATRip [H.264] (Сезон 1, 26 серий из 26) [UKR]

        (скачиваний: 2)
        Свинка Пеппа / Peppa Pig (2004-2012) SATRip (1-4 сезоны: 208 серий из 209) скачать через торрент бесплатно

        (скачиваний: 2)
        Металионы / Metalions (2018-2019) WEB-DLRip [H.264 / 720p-LQ] (сезон 1, серии 1-52 из 52) [Обновляемая]

        (скачиваний: 2)