Подписывайся на наш канал в Telegram https://t.me/torrentok и получи доступ к торрентам без ограничений!
.
Авторизация | Регистрация
bitok.xyz
Торрент скачать бесплатно Мультфильмы торрент скачать Sword Art Online: Extra Edition | Мастера Меча Онлайн: Послесловие [2013, Special] BDRip 1080p 10-bit raw+rus торрент скачать бесплатно


    Sword Art Online: Extra Edition | Мастера Меча Онлайн: Послесловие [2013, Special] BDRip 1080p 10-bit raw+rus торрент скачать бесплатно

    Дата: 16-02-2020, 05:00 | .torrent скачали: 0

    Sword Art Online: Extra Edition | Мастера Меча Онлайн: Послесловие [2013, Special] BDRip 1080p 10-bit raw+rusТип: Special
    Жанр: Приключения, Фэнтези
    Продолжительность: 01: 40: 42
    Дата выпуска: 31.12.2013
    Автор оригинала: Кавахара Рэки
    Режиссер: Ито Томохико
    Производство: A-1 Pictures/ Япония

    World-Art |AniDB |MyAnimelist |Shikimori

    Описание

    Пересказ 1 сезон любимого сериалаа в формате общения героев
    Юи хочет увидеть кита, выполняя подводное задание вместе с Кирито в Alfheim Online. Однако в ходе задания выясняется, что Лифа не умеет плавать. Асуна и другие девушки решают тренировать Сугуху в бассейне в реальном мире. А в это время Кадзуто кое-кого встречает...
    Автор: dalteri ©Shikimori
    Качество Видео: BDRip,
    Видео: AVC/x264 , 1920x1080, 23.976 fps, 8 653 kb/s, 0.174 bpp10-bit
    Язык Озвучки: Японский и Русский
    Озвучка: Одноголосая, Двухголосая, Многоголосая закадровая
    Аудио №1: AC32.0 , 48.0 kHz, 192 kb/s(Shiza Project) |Язык:
    Аудио №2: AC32.0 , 48.0 kHz, 192 kb/s(Onibaku) |Язык:
    Аудио №3: AC32.0 , 48.0 kHz, 192 kb/s(AniDub) |Язык:
    Аудио №4: AC32.0 , 48.0 kHz, 192 kb/s(GetSmart) |Язык:
    Аудио №5: AC32.0 , 48.0 kHz, 192 kb/s(Renegade Team) |Язык:
    Аудио №6: FLAC2.0 , 48.0 kHz, 689 kb/s 16-Bit(Original) |Язык:
    Субтитры: Надписи/Полные(Руский)

    Скриншоты для ознакомления




    Внимание! Весь тайтл, в моём варианте, суммарно весит минимум204 ГБ
    1) Sword Art Online TV-1
    2) Sword Art Online Extra Edition(Эта раздача)
    3) Sword Art Online TV-2
    4) Sword Art Online Ordinal Scale
    5) Sword Art Online Gun Gale Online
    6) Sword Art Online Alicization TV
    7) Sword Art Online Alicization - War of Underworld TV-1(После появления BDRip)
    8) Sword Art Online Alicization - War of Underworld TV-2(После появления BDRip) (Анонс)
    Все серии пронумерованы для удобства просмотра в хронологическом порядке. Можно всё закинуть в одну папку и наслаждаться непрерывным просмотром.
    General
    Unique ID : 58215910214846414786373139133186935147 (0x2BCBF9FA15E8B7E4D8254390032F896B)
    Complete name : J: АнимеМастера Меча Онлайн (Sword Art Online) BDRip (2012-2020)(02)00 (ReCap). Extra Edition (Послесловие).mkv
    Format : Matroska
    Format version : Version 4
    File size : 7.25 GiB
    Duration : 1 h 40 min
    Overall bit rate mode : Variable
    Overall bit rate : 10.3 Mb/s
    Encoded date : UTC 2019-10-31 10: 13: 25
    Writing application : mkvmerge v38.0.0 (\'The Silent Type\') 64-bit
    Writing library : libebml v1.3.9 + libmatroska v1.5.2
    Attachments : AGPmod.ttf
    Video
    ID : 1
    Format : AVC
    Format/Info : Advanced Video Codec
    Format profile : High10@L4.1
    Format settings : CABAC/4 Ref Frames
    Format settings, CABAC : Yes
    Format settings, Reference : 4 frames
    Codec ID : V_MPEG4/ISO/AVC
    Duration : 1 h 40 min
    Bit rate : 8 653 kb/s
    Width : 1 920 pixels
    Height : 1 080 pixels
    Display aspect ratio : 16: 9
    Frame rate mode : Constant
    Frame rate : 23.976 (24000/1001) FPS
    Color space : YUV
    Chroma subsampling : 4: 2: 0
    Bit depth : 10 bits
    Scan type : Progressive
    Bits/(Pixel*Frame) : 0.174
    Stream size : 6.09 GiB (84%)
    Writing library : x264 core 128 r2216 198a7ea
    Encoding settings : cabac=1/ref=4/deblock=1: -2: -2/analyse=0x3: 0x133/me=umh/subme=9/psy=1/psy_rd=1.00: 0.00/mixed_ref=1/me_range=32/chroma_me=1/trellis=2/8x8dct=1/cqm=0/deadzone=21, 11/fast_pskip=1/chroma_qp_offset=-2/threads=12/lookahead_threads=2/sliced_threads=0/nr=0/decimate=0/interlaced=0/bluray_compat=0/constrained_intra=0/bframes=12/b_pyramid=2/b_adapt=2/b_bias=0/direct=3/weightb=1/open_gop=0/weightp=2/keyint=250/keyint_min=23/scenecut=40/intra_refresh=0/rc=crf/mbtree=0/crf=16.0/qcomp=0.80/qpmin=0/qpmax=81/qpstep=4/ip_ratio=1.40/pb_ratio=1.30/aq=1: 0.80
    Language : Japanese
    Default : Yes
    Forced : No
    Audio #1
    ID : 2
    Format : AC-3
    Format/Info : Audio Coding 3
    Commercial name : Dolby Digital
    Codec ID : A_AC3
    Duration : 1 h 40 min
    Bit rate mode : Constant
    Bit rate : 192 kb/s
    Channel(s) : 2 channels
    Channel layout : L R
    Sampling rate : 48.0 kHz
    Frame rate : 31.250 FPS (1536 SPF)
    Compression mode : Lossy
    Stream size : 138 MiB (2%)
    Title : Shiza Project
    Language : Russian
    Service kind : Complete Main
    Default : Yes
    Forced : No
    Audio #2
    ID : 3
    Format : AC-3
    Format/Info : Audio Coding 3
    Commercial name : Dolby Digital
    Codec ID : A_AC3
    Duration : 1 h 40 min
    Bit rate mode : Constant
    Bit rate : 192 kb/s
    Channel(s) : 2 channels
    Channel layout : L R
    Sampling rate : 48.0 kHz
    Frame rate : 31.250 FPS (1536 SPF)
    Compression mode : Lossy
    Stream size : 138 MiB (2%)
    Title : Zendos Eladiel (Onibaku)
    Language : Russian
    Service kind : Complete Main
    Default : No
    Forced : No
    Audio #3
    ID : 4
    Format : AC-3
    Format/Info : Audio Coding 3
    Commercial name : Dolby Digital
    Codec ID : A_AC3
    Duration : 1 h 40 min
    Bit rate mode : Constant
    Bit rate : 192 kb/s
    Channel(s) : 2 channels
    Channel layout : L R
    Sampling rate : 48.0 kHz
    Frame rate : 31.250 FPS (1536 SPF)
    Compression mode : Lossy
    Stream size : 138 MiB (2%)
    Title : AniDub
    Language : Russian
    Service kind : Complete Main
    Default : No
    Forced : No
    Audio #4
    ID : 5
    Format : AC-3
    Format/Info : Audio Coding 3
    Commercial name : Dolby Digital
    Codec ID : A_AC3
    Duration : 1 h 40 min
    Bit rate mode : Constant
    Bit rate : 192 kb/s
    Channel(s) : 2 channels
    Channel layout : L R
    Sampling rate : 48.0 kHz
    Frame rate : 31.250 FPS (1536 SPF)
    Compression mode : Lossy
    Stream size : 138 MiB (2%)
    Title : Persona99
    Language : Russian
    Service kind : Complete Main
    Default : No
    Forced : No
    Audio #5
    ID : 6
    Format : AC-3
    Format/Info : Audio Coding 3
    Commercial name : Dolby Digital
    Codec ID : A_AC3
    Duration : 1 h 40 min
    Bit rate mode : Constant
    Bit rate : 192 kb/s
    Channel(s) : 2 channels
    Channel layout : L R
    Sampling rate : 48.0 kHz
    Frame rate : 31.250 FPS (1536 SPF)
    Compression mode : Lossy
    Stream size : 138 MiB (2%)
    Title : Renegade Team
    Language : Russian
    Service kind : Complete Main
    Default : No
    Forced : No
    Audio #6
    ID : 7
    Format : FLAC
    Format/Info : Free Lossless Audio Codec
    Codec ID : A_FLAC
    Duration : 1 h 40 min
    Bit rate mode : Variable
    Bit rate : 689 kb/s
    Channel(s) : 2 channels
    Channel layout : L R
    Sampling rate : 48.0 kHz
    Frame rate : 11.719 FPS (4096 SPF)
    Bit depth : 16 bits
    Compression mode : Lossless
    Stream size : 496 MiB (7%)
    Title : Original
    Writing library : libFLAC 1.2.1 (UTC 2007-09-17)
    Language : Japanese
    Default : No
    Forced : No
    Text #1
    ID : 8
    Format : ASS
    Codec ID : S_TEXT/ASS
    Codec ID/Info : Advanced Sub Station Alpha
    Duration : 1 h 37 min
    Bit rate : 2 b/s
    Count of elements : 14
    Compression mode : Lossless
    Stream size : 1.91 KiB (0%)
    Title : Forced
    Language : Russian
    Default : Yes
    Forced : No
    Text #2
    ID : 9
    Format : ASS
    Codec ID : S_TEXT/ASS
    Codec ID/Info : Advanced Sub Station Alpha
    Duration : 1 h 40 min
    Bit rate : 139 b/s
    Count of elements : 1238
    Compression mode : Lossless
    Stream size : 103 KiB (0%)
    Title : Full
    Language : Russian
    Default : No
    Forced : No
    Menu
    00: 00: 00.000 : : Part 1
    00: 06: 32.975 : : Part 2
    00: 16: 50.968 : : Part 3
    00: 24: 24.963 : : Part 4
    00: 30: 13.978 : : Part 5
    00: 45: 10.958 : : Part 6
    01: 00: 10.940 : : Part 7
    01: 12: 49.948 : : Part 8
    01: 20: 19.940 : : Part 9
    01: 28: 37.979 : : Part 10
    01: 38: 58.515 : : ED
    01: 40: 29.022 : : Part 11
    Время раздачи: С 8: 00 по 18: 00 МСК (до появления первых 3-5 скачавших)
    Понравился релиз? Ставь Оценку и нажми Спасибо
    Это серьёзно меня мотивирует делать подобные релизы.

    За ретайминг звука и субтитров огромное спасибо DS2902
    Полный список ретаймов


    Онлайн видео Sword Art Online: Extra Edition


    Sword Art Online: Extra Edition | Мастера Меча Онлайн: Послесловие [2013, Special] BDRip 1080p 10-bit raw+rus торрент скачать бесплатно
    Рейтинг →
     (голосов: 1, оценка 4/5, голосовать можно 1 раз )

    Другие торренты по теме:

  • Sword Art Online: Alicization | Sword Art Online: Alicization | Мастера Меча Онлайн: Алисизация [2018, TV, 1 из 12] WEBRip 1080p raw+rus
  • Sword Art Online: Alicization 2 / Sword Art Online: Alicization - War of Underworld / Мастера меча онлайн: Алисизация - Война в Подмирье [2019, TV, 1 из 23] WEBRip 720p raw
  • Sword Art Online Alternative: Gun Gale Online Squad Jam | GunGale Online: "Схватка отрядов" (2014) [1 том] [Ранобэ] [Русский] [DOCX, FB2, EPUB, JPG] [incomplete]
  • Sword Art Online Alternative: Gun Gale Online / Мастера меча онлайн альтернатива: Призрачная Пуля Онлайн [2018, TV, 1 из 12] HDTV 720p raw
  • Sword Art Online Alternative: Gun Gale Online / Мастера меча онлайн: Альтернативная «Призрачная пуля» [2018, TV, 6 из 12 + OVA] WEB-DL 720p Raw+Rus
  • Sword Art Online Alternative: Gun Gale Online | Мастера меча онлайн: Альтернативная «Призрачная пуля» [2018, TV, 2 из 12 эп.] BDrip 1080p raw
  • Sword Art Online Alternative: Gun Gale Online | Мастера Меча Онлайн: Альтернативная «Призрачная пуля» [2018, TV, 12 ep] BDRip 1080p 10-bit raw+rus
  • Sword Art Online II / Мастера меча онлайн 2 [2014, TV, 12 из 24] HDTV 720p raw


    • Комментарии (0):

      Информация

      Информация

        Посетители, находящиеся в группе Гости, не могут оставлять комментарии в данной новости.

        ↓ Меню




        Популярное

        Фиксики против Кработов (2019) WEB-DLRip

        (скачиваний: 134)
        Рик и Морти / Rick and Morty (2015) WEB-DL [H.264 / 1080p] (Сезон 2, серии 1-10 из 10) Сыендук [EN / RU Sub] скачать через торрент бесплатно

        (скачиваний: 109)
        М.Ю. Демидова | ЕГЭ-2020. Физика. 30 типовых вариантов (2020) [PDF]

        (скачиваний: 80)
        Малышарики (2015-2019) WEB-DL [H.264 / 1080p-LQ] (серии 1-154 из 208) [Обновляемая]

        (скачиваний: 68)
        Рик и Морти / Rick and Morty (2013) BDRip [H.264 / 720p-LQ] (сезон 1, серии 1-11 из 11) Сыендук

        (скачиваний: 65)
        Рик и Морти / Rick and Morty (2013) BDRip [H.264 / 1080p] (Сезон 1, серии 1-11 из 11) Сыендук [EN Sub] скачать через торрент бесплатно

        (скачиваний: 46)
        Фиксики против Кработов (2019) WEB-DL [H.264 / 1080p-LQ]

        (скачиваний: 32)
        Свинка Пеппа / Peppa Pig (2004-2012) SATRip (1-4 сезоны: 208 серий из 209) скачать через торрент бесплатно

        (скачиваний: 28)
        Рик и Морти / Rick and Morty (2017) WEBRip [H.264 / 720p-LQ] (Сезон 3, серии 1 из ) Сыендук

        (скачиваний: 26)
        Жила-была царевна (2015-2019) WEB-DLRip [H.264 / 720p-LQ] (сезон 1, серии 1-18 из 26) [Обновляемая]

        (скачиваний: 21)