Подписывайся на наш канал в Telegram https://t.me/torrentok и получи доступ к торрентам без ограничений!
.
Авторизация | Регистрация
bitok.xyz
Торрент скачать бесплатно Мультфильмы торрент скачать Sword Art Online | Мастера Меча Онлайн [ТВ-1][2012, TV, 25 ep] BDRip 1080p 10-bit raw+rus торрент скачать бесплатно


    Sword Art Online | Мастера Меча Онлайн [ТВ-1][2012, TV, 25 ep] BDRip 1080p 10-bit raw+rus торрент скачать бесплатно

    Дата: 16-02-2020, 05:00 | .torrent скачали: 0

    Sword Art Online | Мастера Меча Онлайн [ТВ-1][2012, TV, 25 ep] BDRip 1080p 10-bit raw+rusТип: TV
    Жанр: Приключения, Фэнтези, Романтика, Драма
    Продолжительность: 25 Эпизодов по 23 Мин.
    Количество серий: 25 Эпизодов
    Дата выпуска: c08.07.2012 по23.12.2012
    Автор оригинала: Кавахара Рэки
    Режиссер: Ито Томохико
    Производство: A-1 Pictures/ Япония

    World-Art |AniDB |MyAnimelist |Shikimori

    Описание

    И вот вышла многопользовательская игра нового поколения — игра, где смерть реальна и бегство невозможно. Единственный выход — дойти до конца. А называется игра Sword Art Online.
    Не зная этой правды, десять тысяч игроков, используя нейрошлемы компании Агис, зарегистрировались одновременно и тем самым положили начало смертельной битве, длящейся уже два долгих года.
    Главный герой Кирито принимает правила игры и не собирается сдаваться. В этом игровом мире, в гигантской парящей крепости под названием Айнкрад, он стал игроком-одиночкой. Чтобы выйти из игры, ему придётся пройти все 100 этажей этого огромного сооружения. Однако, не в силах противостоять настойчивости мастера рапиры Асуны, он начинает работать с ней в паре. Возможно, эта встреча предопределит судьбу всей игры...
    Автор: Sfairat ©Shikimori
    Качество Видео: BDRip,
    Видео: AVC/x264 , 1920x1080, 23.976 fps, 8 046 kb/s, 0.162 bpp10-bit
    Язык Озвучки: Японский и Русский
    Озвучка: Одноголосый, Двухголосая, Многоголосая закадровая
    Аудио №1: AC32.0 , 48.0 kHz, 192 kb/s(Renegade Team) |Язык:
    Аудио №2: AC32.0 , 48.0 kHz, 192 kb/s(AnilLbria) |Язык:
    Аудио №3: AAC2.0 , 48.0 kHz, 192 kb/s(Animedia) |Язык:
    Аудио №4: AC32.0 , 48.0 kHz, 192 kb/s(AniFilm) |Язык:
    Аудио №5: AC32.0 , 48.0 kHz, 192 kb/s(Shiza Project) |Язык:
    Аудио №6: AC32.0 , 48.0 kHz, 192 kb/s(GetSmart) |Язык:
    Аудио №7: AC32.0 , 48.0 kHz, 192 kb/s(AniDub) |Язык:
    Аудио №8: AC32.0 , 48.0 kHz, 192 kb/s(MCA) |Язык:
    Аудио №9: AC32.0 , 48.0 kHz, 192 kb/s(AniSense) |Язык:
    Аудио №10: FLAC2.0 , 48.0 kHz, 680 kb/s 16-Bit(Original) |Язык:
    Субтитры: Надписи/Полные(HR Stan WarHammer)

    Скриншоты для ознакомления




    Внимание! Весь тайтл, в моём варианте, суммарно весит минимум204 ГБ
    1) Sword Art Online TV-1(Эта раздача)
    2) Sword Art Online Extra Edition
    3) Sword Art Online TV-2
    4) Sword Art Online Ordinal Scale
    5) Sword Art Online Gun Gale Online
    6) Sword Art Online Alicization TV
    7) Sword Art Online Alicization - War of Underworld TV-1(После появления BDRip)
    8) Sword Art Online Alicization - War of Underworld TV-2(После появления BDRip) (Анонс)
    Все серии пронумерованы для удобства просмотра в хронологическом порядке. Можно всё закинуть в одну папку и наслаждаться непрерывным просмотром.
    01. The World of Swords (Мир мечей)
    02. Beater (Битер)
    03. The Red-Nosed Reindeer (Красноносый олень)
    04. The Black Swordsman (Черный мечник)
    05. A Crime Within the Walls (Инцидент за стенами)
    06. Illusionary Avenger (Призрачный мститель)
    07. The Temperature of the Heart (Тепло сердца)
    08. The Sword Dance of White and Black (Танец черного и белого меча)
    09. The Blue-Eyed Demon (Голубоглазый демон)
    10. Crimson Killing Intent (Алая жажда крови)
    11. The Girl of the Morning Dew (Девочка утренней расы)
    12. Yui`s Heart (Сердце Юи)
    13. Edge of Hell`s Abyss (Глубины ада)
    14. The End of the World (Падение мира)
    15. Return (Возвращение)
    16. Land of the Fairies (Край фей)
    17. Captive Queen (Плененная королева)
    18. To the World Tree (К иггдрасилю)
    19. The Lugru Corridor (Коридор ругера)
    20. General of the Blazing Flame (Генерал бушующего пламени)
    21. The Truth of Alfheim (Правда об альвхейме)
    22. Grand Quest (Главный квест)
    23. Bonds (Узы)
    24. Gilded Hero (Мнимый герой)
    25. The World Seed (Семя мира)

    General
    Unique ID : 215459908665456887140973658615695946027 (0xA21811A96B300602ED16F5E6881E312B)
    Complete name : J: АнимеМастера Меча Онлайн (Sword Art Online) BDRip (2012-2020)Sword Art Online TV-11. The World of Swords (Мир мечей).mkv
    Format : Matroska
    Format version : Version 4
    File size : 1.73 GiB
    Duration : 23 min 42 s
    Overall bit rate mode : Variable
    Overall bit rate : 10.5 Mb/s
    Encoded date : UTC 2019-10-31 09: 43: 31
    Writing application : mkvmerge v38.0.0 (\'The Silent Type\') 64-bit
    Writing library : libebml v1.3.9 + libmatroska v1.5.2
    Video
    ID : 1
    Format : AVC
    Format/Info : Advanced Video Codec
    Format profile : High 10@L4
    Format settings : CABAC/4 Ref Frames
    Format settings, CABAC : Yes
    Format settings, Reference : 4 frames
    Codec ID : V_MPEG4/ISO/AVC
    Duration : 23 min 42 s
    Bit rate : 8 046 kb/s
    Width : 1 920 pixels
    Height : 1 080 pixels
    Display aspect ratio : 16: 9
    Frame rate mode : Constant
    Frame rate : 23.976 (24000/1001) FPS
    Color space : YUV
    Chroma subsampling : 4: 2: 0
    Bit depth : 10 bits
    Scan type : Progressive
    Bits/(Pixel*Frame) : 0.162
    Stream size : 1.33 GiB (77%)
    Writing library : x264 core 128 r2216 198a7ea
    Encoding settings : cabac=1/ref=4/deblock=1: -2: -2/analyse=0x3: 0x133/me=umh/subme=9/psy=1/psy_rd=0.90: 0.05/mixed_ref=1/me_range=32/chroma_me=1/trellis=2/8x8dct=1/cqm=0/deadzone=21, 11/fast_pskip=0/chroma_qp_offset=-3/threads=12/lookahead_threads=2/sliced_threads=0/nr=0/decimate=0/interlaced=0/bluray_compat=0/constrained_intra=0/bframes=12/b_pyramid=2/b_adapt=2/b_bias=0/direct=3/weightb=1/open_gop=0/weightp=2/keyint=250/keyint_min=23/scenecut=40/intra_refresh=0/rc=crf/mbtree=0/crf=16.5/qcomp=0.80/qpmin=0/qpmax=81/qpstep=4/ip_ratio=1.40/pb_ratio=1.30/aq=1: 0.70
    Language : Japanese
    Default : Yes
    Forced : No
    Color range : Limited
    Matrix coefficients : BT.709
    Audio #1
    ID : 2
    Format : AC-3
    Format/Info : Audio Coding 3
    Commercial name : Dolby Digital
    Codec ID : A_AC3
    Duration : 23 min 42 s
    Bit rate mode : Constant
    Bit rate : 192 kb/s
    Channel(s) : 2 channels
    Channel layout : L R
    Sampling rate : 48.0 kHz
    Frame rate : 31.250 FPS (1536 SPF)
    Compression mode : Lossy
    Stream size : 32.6 MiB (2%)
    Title : Renegade Team
    Language : Russian
    Service kind : Complete Main
    Default : Yes
    Forced : No
    Audio #2
    ID : 3
    Format : AC-3
    Format/Info : Audio Coding 3
    Commercial name : Dolby Digital
    Codec ID : A_AC3
    Duration : 23 min 42 s
    Bit rate mode : Constant
    Bit rate : 192 kb/s
    Channel(s) : 2 channels
    Channel layout : L R
    Sampling rate : 48.0 kHz
    Frame rate : 31.250 FPS (1536 SPF)
    Compression mode : Lossy
    Stream size : 32.6 MiB (2%)
    Title : Zendos, Say (1-10) Eladiel (AnilLbria)
    Language : Russian
    Service kind : Complete Main
    Default : No
    Forced : No
    Audio #3
    ID : 4
    Format : AC-3
    Format/Info : Audio Coding 3
    Commercial name : Dolby Digital
    Codec ID : A_AC3
    Duration : 23 min 42 s
    Bit rate mode : Constant
    Bit rate : 192 kb/s
    Channel(s) : 2 channels
    Channel layout : L R
    Sampling rate : 48.0 kHz
    Frame rate : 31.250 FPS (1536 SPF)
    Compression mode : Lossy
    Stream size : 32.6 MiB (2%)
    Title : JAM (Animedia)
    Language : Russian
    Service kind : Complete Main
    Default : No
    Forced : No
    Audio #4
    ID : 5
    Format : AC-3
    Format/Info : Audio Coding 3
    Commercial name : Dolby Digital
    Codec ID : A_AC3
    Duration : 23 min 42 s
    Bit rate mode : Constant
    Bit rate : 192 kb/s
    Channel(s) : 2 channels
    Channel layout : L R
    Sampling rate : 48.0 kHz
    Frame rate : 31.250 FPS (1536 SPF)
    Compression mode : Lossy
    Stream size : 32.6 MiB (2%)
    Title : Trouble Акварелька (AniFilm)
    Language : Russian
    Service kind : Complete Main
    Default : No
    Forced : No
    Audio #5
    ID : 6
    Format : AC-3
    Format/Info : Audio Coding 3
    Commercial name : Dolby Digital
    Codec ID : A_AC3
    Duration : 23 min 42 s
    Bit rate mode : Constant
    Bit rate : 192 kb/s
    Channel(s) : 2 channels
    Channel layout : L R
    Sampling rate : 48.0 kHz
    Frame rate : 31.250 FPS (1536 SPF)
    Compression mode : Lossy
    Stream size : 32.6 MiB (2%)
    Title : ShadMG ЖуЖа Z9IbLeG (Shiza Project)
    Language : Russian
    Service kind : Complete Main
    Default : No
    Forced : No
    Audio #6
    ID : 7
    Format : AC-3
    Format/Info : Audio Coding 3
    Commercial name : Dolby Digital
    Codec ID : A_AC3
    Duration : 23 min 42 s
    Bit rate mode : Constant
    Bit rate : 192 kb/s
    Channel(s) : 2 channels
    Channel layout : L R
    Sampling rate : 48.0 kHz
    Frame rate : 31.250 FPS (1536 SPF)
    Compression mode : Lossy
    Stream size : 32.6 MiB (2%)
    Title : Persona99 (GetSmart)
    Language : Russian
    Service kind : Complete Main
    Default : No
    Forced : No
    Audio #7
    ID : 8
    Format : AC-3
    Format/Info : Audio Coding 3
    Commercial name : Dolby Digital
    Codec ID : A_AC3
    Duration : 23 min 42 s
    Bit rate mode : Constant
    Bit rate : 192 kb/s
    Channel(s) : 2 channels
    Channel layout : L R
    Sampling rate : 48.0 kHz
    Frame rate : 31.250 FPS (1536 SPF)
    Compression mode : Lossy
    Stream size : 32.6 MiB (2%)
    Title : OSLIKt (AniDub)
    Language : Russian
    Service kind : Complete Main
    Default : No
    Forced : No
    Audio #8
    ID : 9
    Format : AC-3
    Format/Info : Audio Coding 3
    Commercial name : Dolby Digital
    Codec ID : A_AC3
    Duration : 23 min 42 s
    Bit rate mode : Constant
    Bit rate : 192 kb/s
    Channel(s) : 2 channels
    Channel layout : L R
    Sampling rate : 48.0 kHz
    Frame rate : 31.250 FPS (1536 SPF)
    Compression mode : Lossy
    Stream size : 32.6 MiB (2%)
    Title : Valkrist Kedra (MCA)
    Language : Russian
    Service kind : Complete Main
    Default : No
    Forced : No
    Audio #9
    ID : 10
    Format : AC-3
    Format/Info : Audio Coding 3
    Commercial name : Dolby Digital
    Codec ID : A_AC3
    Duration : 23 min 42 s
    Bit rate mode : Constant
    Bit rate : 192 kb/s
    Channel(s) : 2 channels
    Channel layout : L R
    Sampling rate : 48.0 kHz
    Frame rate : 31.250 FPS (1536 SPF)
    Compression mode : Lossy
    Stream size : 32.6 MiB (2%)
    Title : Lee-Ann Moonslayer (AniSense)
    Language : Russian
    Service kind : Complete Main
    Default : No
    Forced : No
    Audio #10
    ID : 11
    Format : FLAC
    Format/Info : Free Lossless Audio Codec
    Codec ID : A_FLAC
    Duration : 23 min 42 s
    Bit rate mode : Variable
    Bit rate : 680 kb/s
    Channel(s) : 2 channels
    Channel layout : L R
    Sampling rate : 48.0 kHz
    Frame rate : 11.719 FPS (4096 SPF)
    Bit depth : 16 bits
    Compression mode : Lossless
    Stream size : 115 MiB (7%)
    Title : Original
    Writing library : libFLAC 1.2.1 (UTC 2007-09-17)
    Language : Japanese
    Default : No
    Forced : No
    Text #1
    ID : 12
    Format : ASS
    Codec ID : S_TEXT/ASS
    Codec ID/Info : Advanced Sub Station Alpha
    Duration : 23 min 35 s
    Bit rate : 101 b/s
    Count of elements : 126
    Compression mode : Lossless
    Stream size : 17.5 KiB (0%)
    Title : Forced (HR Stan WarHammer)
    Language : Russian
    Default : Yes
    Forced : No
    Text #2
    ID : 13
    Format : ASS
    Codec ID : S_TEXT/ASS
    Codec ID/Info : Advanced Sub Station Alpha
    Duration : 23 min 35 s
    Bit rate : 253 b/s
    Count of elements : 448
    Compression mode : Lossless
    Stream size : 43.8 KiB (0%)
    Title : Full (HR Stan WarHammer)
    Language : Russian
    Default : No
    Forced : No
    Menu
    00: 00: 00.000 : en: Prologue
    00: 02: 26.021 : en: Part A
    00: 11: 02.996 : en: Part B
    00: 21: 46.013 : en: ED
    00: 23: 15.978 : en: Part C
    00: 23: 34.997 : en: Preview
    Время раздачи: С 8: 00 по 18: 00 МСК (до появления первых 3-5 скачавших)
    Понравился релиз? Ставь Оценку и нажми Спасибо
    Это серьёзно меня мотивирует делать подобные релизы.

    За ретайминг звука и субтитров огромное спасибо DS2902
    Полный список ретаймов


    Онлайн видео Sword Art Online


    Sword Art Online | Мастера Меча Онлайн [ТВ-1][2012, TV, 25 ep] BDRip 1080p 10-bit raw+rus торрент скачать бесплатно
    Рейтинг →
     (голосов: 1, оценка 4/5, голосовать можно 1 раз )

    Другие торренты по теме:

  • Sword Art Online: Alicization | Sword Art Online: Alicization | Мастера Меча Онлайн: Алисизация [2018, TV, 1 из 12] WEBRip 1080p raw+rus
  • Sword Art Online: Alicization 2 / Sword Art Online: Alicization - War of Underworld / Мастера меча онлайн: Алисизация - Война в Подмирье [2019, TV, 1 из 23] WEBRip 720p raw
  • Sword Art Online Alternative: Gun Gale Online Squad Jam | GunGale Online: "Схватка отрядов" (2014) [1 том] [Ранобэ] [Русский] [DOCX, FB2, EPUB, JPG] [incomplete]
  • Sword Art Online Alternative: Gun Gale Online / Мастера меча онлайн альтернатива: Призрачная Пуля Онлайн [2018, TV, 1 из 12] HDTV 720p raw
  • Sword Art Online Alternative: Gun Gale Online / Мастера меча онлайн: Альтернативная «Призрачная пуля» [2018, TV, 6 из 12 + OVA] WEB-DL 720p Raw+Rus
  • Sword Art Online Alternative: Gun Gale Online | Мастера меча онлайн: Альтернативная «Призрачная пуля» [2018, TV, 2 из 12 эп.] BDrip 1080p raw
  • Sword Art Online Alternative: Gun Gale Online | Мастера Меча Онлайн: Альтернативная «Призрачная пуля» [2018, TV, 12 ep] BDRip 1080p 10-bit raw+rus
  • Sword Art Online II / Мастера меча онлайн 2 [2014, TV, 12 из 24] HDTV 720p raw


    • Комментарии (0):

      Информация

      Информация

        Посетители, находящиеся в группе Гости, не могут оставлять комментарии в данной новости.

        ↓ Меню




        Популярное