Подписывайся на наш канал в Telegram https://t.me/torrentok и получи доступ к торрентам без ограничений!
.
Авторизация | Регистрация
bitok.xyz
Торрент скачать бесплатно Мультфильмы торрент скачать Семейка Аддамс / The Addams Family (2019) BDRemux [H.264 / 1080p] торрент скачать бесплатно


    Семейка Аддамс / The Addams Family (2019) BDRemux [H.264 / 1080p] торрент скачать бесплатно

    Дата: 17-02-2020, 05:00 | .torrent скачали: 1

    Семейка Аддамс / The Addams Family (2019) BDRemux [H.264 / 1080p]Производство: Канада, США/Metro-Goldwyn-Mayer (MGM), Cinesite Animation
    Жанр: Мультфильм, ужасы, фэнтези, комедия, семейный
    Режиссер: Грег Тирнан, Конрад Вернон

    Актеры
    Оскар Айзек, Шарлиз Терон, Хлоя Грейс Морец, Финн Вулфард, Ник Кролл, Снуп Догг, Бетт Мидлер, Эллисон Джэнни, Мартин Шорт, Кэтрин О`Хара

    Описание

    Папа любит долгие прогулки в ненастную погоду. Мама считает, что черный цвет самый яркий. У детей кладбище - любимая площадка для игр. Бабушка выпивает пару капель яда перед сном. Вы все еще думаете, что ваши родственники странные? Знакомьтесь - семейка Аддамс.

    Возраст: 12+ (зрителям, достигшим 12 лет)
    Рейтинг MPAA: PG (рекомендуется присутствие родителей)
    Дата российской премьеры: 31 октября 2019
    Релиз от: selezen
    Продолжительность: 01: 27: 01
    Качество видео: BDRemux
    Перевод: Дублированный (iTunes), Авторский (Михаил Яроцкий)
    Субтитры: Русские (Forced, full), украинские (Forced), английские
    Видео: AVC/H.264, 1920x1080, ~29305 Kbps
    Аудио 1: AC3, 6 ch, 384 Kbps | Русский (DUB)
    Аудио 2: AC3, 6 ch, 640 Kbps | Русский (AVO - Михаил Яроцкий)
    Аудио 3: DTS-HD MA, 8 ch, 4319 Kbps | Русский (AVO - Михаил Яроцкий)
    Аудио 5: AC3, 2 ch, 192 Kbps | Украинский (DUB)
    Аудио 4: DTS-HD MA, 8 ch, 4319 Kbps | Английский
    General
    Complete name : The.Addams.Family.2019.D.AVO.BDREMUX.1080p.seleZen.mkv
    Format : Matroska
    Format version : Version 4
    File size : 23.8 GiB
    Duration : 1 h 27 min
    Overall bit rate mode : Variable
    Overall bit rate : 39.2 Mb/s
    Movie name : The.Addams.Family.2019 from селезень
    Encoded date : UTC 2020-02-16 19: 49: 38
    Writing application : mkvmerge v40.0.0 (\'Old Town Road + Pony\') 64-bit
    Writing library : libebml v1.3.9 + libmatroska v1.5.2
    Video
    ID : 1
    Format : AVC
    Format/Info : Advanced Video Codec
    Format profile : High@L4.1
    Format settings : CABAC/2 Ref Frames
    Format settings, CABAC : Yes
    Format settings, Reference : 2 frames
    Codec ID : V_MPEG4/ISO/AVC
    Duration : 1 h 27 min
    Bit rate mode : Variable
    Bit rate : 29.3 Mb/s
    Width : 1 920 pixels
    Height : 1 080 pixels
    Display aspect ratio : 16: 9
    Frame rate mode : Constant
    Frame rate : 23.976 (24000/1001) FPS
    Color space : YUV
    Chroma subsampling : 4: 2: 0
    Bit depth : 8 bits
    Scan type : Progressive
    Bits/(Pixel*Frame) : 0.589
    Stream size : 17.8 GiB (75%)
    Language : English
    Default : Yes
    Forced : No
    Audio #1
    ID : 2
    Format : AC-3
    Format/Info : Audio Coding 3
    Commercial name : Dolby Digital
    Codec ID : A_AC3
    Duration : 1 h 27 min
    Bit rate mode : Constant
    Bit rate : 384 kb/s
    Channel(s) : 6 channels
    Channel layout : L R C LFE Ls Rs
    Sampling rate : 48.0 kHz
    Frame rate : 31.250 FPS (1536 SPF)
    Compression mode : Lossy
    Stream size : 239 MiB (1%)
    Title : iTunes
    Language : Russian
    Service kind : Complete Main
    Default : Yes
    Forced : Yes
    Audio #2
    ID : 3
    Format : AC-3
    Format/Info : Audio Coding 3
    Commercial name : Dolby Digital
    Codec ID : A_AC3
    Duration : 1 h 27 min
    Bit rate mode : Constant
    Bit rate : 640 kb/s
    Channel(s) : 6 channels
    Channel layout : L R C LFE Ls Rs
    Sampling rate : 48.0 kHz
    Frame rate : 31.250 FPS (1536 SPF)
    Compression mode : Lossy
    Stream size : 398 MiB (2%)
    Title : AVO (Kyberpunk)
    Language : Russian
    Service kind : Complete Main
    Default : No
    Forced : No
    Audio #3
    ID : 4
    Format : DTS XLL
    Format/Info : Digital Theater Systems
    Commercial name : DTS-HD Master Audio
    Codec ID : A_DTS
    Duration : 1 h 27 min
    Bit rate mode : Variable
    Bit rate : 4 379 kb/s
    Channel(s) : 8 channels
    Channel layout : C L R LFE Lb Rb Lss Rss
    Sampling rate : 48.0 kHz
    Frame rate : 93.750 FPS (512 SPF)
    Bit depth : 24 bits
    Compression mode : Lossless
    Stream size : 2.66 GiB (11%)
    Title : AVO (Kyberpunk)
    Language : Russian
    Default : No
    Forced : Yes
    Audio #4
    ID : 5
    Format : AC-3
    Format/Info : Audio Coding 3
    Commercial name : Dolby Digital
    Codec ID : A_AC3
    Duration : 1 h 27 min
    Bit rate mode : Constant
    Bit rate : 192 kb/s
    Channel(s) : 2 channels
    Channel layout : L R
    Sampling rate : 48.0 kHz
    Frame rate : 31.250 FPS (1536 SPF)
    Compression mode : Lossy
    Stream size : 119 MiB (0%)
    Title : iTunes
    Language : Ukrainian
    Service kind : Complete Main
    Default : No
    Forced : No
    Audio #5
    ID : 6
    Format : DTS XLL
    Format/Info : Digital Theater Systems
    Commercial name : DTS-HD Master Audio
    Codec ID : A_DTS
    Duration : 1 h 27 min
    Bit rate mode : Variable
    Bit rate : 4 319 kb/s
    Channel(s) : 8 channels
    Channel layout : C L R LFE Lb Rb Lss Rss
    Sampling rate : 48.0 kHz
    Frame rate : 93.750 FPS (512 SPF)
    Bit depth : 24 bits
    Compression mode : Lossless
    Stream size : 2.63 GiB (11%)
    Title : Original
    Language : English
    Default : No
    Forced : No
    Text #1
    ID : 7
    Format : UTF-8
    Codec ID : S_TEXT/UTF8
    Codec ID/Info : UTF-8 Plain Text
    Duration : 1 h 19 min
    Bit rate : 1 b/s
    Count of elements : 39
    Stream size : 1.16 KiB (0%)
    Title : Forced
    Language : Russian
    Default : Yes
    Forced : Yes
    Text #2
    ID : 8
    Format : UTF-8
    Codec ID : S_TEXT/UTF8
    Codec ID/Info : UTF-8 Plain Text
    Duration : 53 min 24 s
    Bit rate : 7 b/s
    Count of elements : 56
    Stream size : 2.81 KiB (0%)
    Title : Songs (Kyberpunk)
    Language : Russian
    Default : No
    Forced : No
    Text #3
    ID : 9
    Format : UTF-8
    Codec ID : S_TEXT/UTF8
    Codec ID/Info : UTF-8 Plain Text
    Duration : 1 h 19 min
    Bit rate : 105 b/s
    Count of elements : 1221
    Stream size : 61.5 KiB (0%)
    Title : Full
    Language : Russian
    Default : No
    Forced : No
    Text #4
    ID : 10
    Format : UTF-8
    Codec ID : S_TEXT/UTF8
    Codec ID/Info : UTF-8 Plain Text
    Duration : 1 h 19 min
    Bit rate : 1 b/s
    Count of elements : 25
    Stream size : 775 Bytes (0%)
    Title : Forced
    Language : Ukrainian
    Default : No
    Forced : No
    Text #5
    ID : 11
    Format : UTF-8
    Codec ID : S_TEXT/UTF8
    Codec ID/Info : UTF-8 Plain Text
    Duration : 1 h 25 min
    Bit rate : 69 b/s
    Count of elements : 1436
    Stream size : 43.3 KiB (0%)
    Title : Full
    Language : English
    Default : No
    Forced : No
    Menu
    00: 00: 00.000 : : Chapter 01
    00: 05: 08.558 : : Chapter 02
    00: 10: 35.468 : : Chapter 03
    00: 15: 46.946 : : Chapter 04
    00: 19: 35.257 : : Chapter 05
    00: 25: 14.805 : : Chapter 06
    00: 29: 25.764 : : Chapter 07
    00: 34: 20.558 : : Chapter 08
    00: 39: 46.968 : : Chapter 09
    00: 45: 01.741 : : Chapter 10
    00: 49: 07.611 : : Chapter 11
    00: 53: 40.926 : : Chapter 12
    00: 56: 36.560 : : Chapter 13
    01: 00: 01.014 : : Chapter 14
    01: 03: 45.947 : : Chapter 15
    01: 06: 02.458 : : Chapter 16
    01: 10: 54.584 : : Chapter 17
    01: 18: 09.476 : : Chapter 18
    01: 20: 21.316 : : Chapter 19
    01: 21: 11.325 : : Chapter 20

    Скриншоты для ознакомления



    Все одноименные релизы в Клубе
    Время раздачи: 24/7 (мультитрекер)

    Онлайн видео Семейка Аддамс


    Семейка Аддамс / The Addams Family (2019) BDRemux [H.264 / 1080p] торрент скачать бесплатно
    Рейтинг →
     (голосов: 1, оценка 3/5, голосовать можно 1 раз )

    Другие торренты по теме:

  • Семейка Аддамс. Дилогия. / The Addams Family. 2-Movie Set. (1991 / 1993) HDTVRip [H.264] [MP4|1024x576]
  • Семейка Аддамс. Дилогия. / The Addams Family. 2-Movie Set. (1991 / 1993) HDTVRip [H.264] [MP4|1280x720]
  • Семейка Аддамс / The Addams Family (2019) WEB-DLRip [H.264]
  • Семейка Аддамс / The Addams Family (2019) WEB-DLRip
  • Семейка Аддамс / The Addams Family (2019) WEB-DL [H.264 / 1080p-LQ]
  • Семейка Аддамс / The Addams Family (2019) AC3 5.1 [hand made]
  • Семейка Аддамс / The Addams Family (2019) WEB-DLRip [H.264] (Online cin)
  • Семейка Аддамс / The Addams Family (2019) BDRip [H.264 / 1080p] [PR]


    • Комментарии (0):

      Информация

      Информация

        Посетители, находящиеся в группе Гости, не могут оставлять комментарии в данной новости.