Подписывайся на наш канал в Telegram https://t.me/torrentok и получи доступ к торрентам без ограничений!
.
Авторизация | Регистрация
bitok.xyz
Торрент скачать бесплатно Мультфильмы торрент скачать Белая змея / Bai She: Yuan Qi / White Snake (2019) BDRip [H.265 / 1080p-LQ] [10-bit] [DVO] торрент скачать бесплатно

    Белая змея / Bai She: Yuan Qi / White Snake (2019) BDRip [H.265 / 1080p-LQ] [10-bit] [DVO] торрент скачать бесплатно

    Дата: 17-02-2020, 05:00 | .torrent скачали: 0

    Белая змея / Bai She: Yuan Qi / White Snake (2019) BDRip [H.265 / 1080p-LQ] [10-bit] [DVO]Производство: Китай, США/Light Chaser Animation Studios, Warner Bros., Beijing Joy Pictures
    Жанр: мультфильм, мелодрама, фэнтези
    Режиссер: Амп Вон, Чжао Цзи

    Описание
    Династия Тан подходит к своему логическому завершению, но перед тем, как полностью растворится и стать лишь отметкой в истории, народный правитель решает отдать приказ всем солдатам своего королевства – поймать всех змей, которые только возможно найти и убить их. Белая королевская змея, обитающая в прибрежных лесах, узнает об этом и отправляется в путешествие, чтобы убить управителя и отомстить за своих собратьев и сестер.

    Возраст: этот продукт не был классифицирован
    Рейтинг MPAA: этот продукт не был классифицирован
    Дата мировой премьеры: 11 января 2019
    Продолжительность: 01: 39: 13
    Качество видео: BDRip
    Перевод: Любительский двухголосый закадровый
    Язык озвучки Русский, китайский, английский
    Субтитры: Английские
    Видео: HEVC/H.265, 1920x808, ~5778 Kbps
    Аудио 1: AC3, 2 ch, 192 Kbps - Русский, DVO (GrandStudio)
    Аудио 2: AC3, 6 ch, 448 Kbps - Английский
    Аудио 3: AC3, 6 ch, 448 Kbps - Китайский
    Общее
    Уникальный идентификатор : 179042114579266079652468269135528924270 (0x86B241C94662AEBF5F2BA4B8C28B146E)
    Полное имя : R: White Snake. 2019. 1080p. HEVC. 10bit.mkv
    Формат : Matroska
    Версия формата : Version 4/Version 2
    Размер файла : 4, 76 Гбайт
    Продолжительность : 1 ч. 39 м.
    Общий поток : 6869 Кбит/сек
    Дата кодирования : UTC 2020-02-16 12: 50: 02
    Программа кодирования : mkvmerge v28.2.0 (\'The Awakening\') 64-bit
    Библиотека кодирования : libebml v1.3.6 + libmatroska v1.4.9
    Обложка : Yes
    Attachments : cover.jpg
    Видео
    Идентификатор : 1
    Формат : HEVC
    Формат/Информация : High Efficiency Video Coding
    Профиль формата : Main 10@L4@Main
    Идентификатор кодека : V_MPEGH/ISO/HEVC
    Продолжительность : 1 ч. 39 м.
    Битрейт : 5778 Кбит/сек
    Ширина : 1920 пикселей
    Высота : 808 пикселей
    Соотношение сторон : 2, 40: 1
    Режим частоты кадров : Постоянный
    Частота кадров : 24, 000 кадра/сек
    Цветовое пространство : YUV
    Субдискретизация насыщенности : 4: 2: 0
    Битовая глубина : 10 бит
    Бит/(Пиксели*Кадры) : 0.155
    Размер потока : 4, 00 Гбайт (84%)
    Библиотека кодирования : x265 3.2+23-52135ffd9bcd: WindowsGCC 9.2.064 bit 10bit
    Настройки программы : cpuid=1111039/frame-threads=3/numa-pools=8/wpp/no-pmode/no-pme/no-psnr/no-ssim/log-level=2/input-csp=1/input-res=1920x808/interlace=0/total-frames=142879/level-idc=0/high-tier=1/uhd-bd=0/ref=4/no-allow-non-conformance/no-repeat-t_heads/annexb/no-aud/no-hrd/info/hash=0/no-temporal-layers/open-gop/min-keyint=24/keyint=250/gop-lookahead=0/bframes=8/b-adapt=2/b-pyramid/bframe-bias=0/rc-lookahead=25/lookahead-slices=4/scenecut=40/hist-scenecut=0/radl=0/no-splice/no-intra-refresh/ctu=64/min-cu-size=8/rect/no-amp/max-tu-size=32/tu-inter-depth=1/tu-intra-depth=1/limit-tu=0/rdoq-level=2/dynamic-rd=0.00/no-ssim-rd/signhide/no-tskip/nr-intra=0/nr-inter=0/no-constrained-intra/strong-intra-smoothing/max-merge=3/limit-refs=3/limit-modes/me=3/subme=3/merange=57/temporal-mvp/no-frame-dup/no-hme/weightp/no-weightb/no-analyze-src-pics/deblock=0: 0/no-sao/no-sao-non-deblock/rd=4/selective-sao=0/no-early-skip/rskip/no-fast-intra/no-tskip-fast/no-cu-lossless/no-b-intra/no-splitrd-skip/rdpenalty=0/psy-rd=2.00/psy-rdoq=1.00/no-rd-refine/no-lossless/cbqpoffs=0/crqpoffs=0/rc=crf/crf=18.0/qcomp=0.60/qpstep=4/stats-write=0/stats-read=0/ipratio=1.40/pbratio=1.30/aq-mode=3/aq-strength=1.00/cutree/zone-count=0/no-strict-cbr/qg-size=32/no-rc-grain/qpmax=69/qpmin=0/no-const-vbv/sar=0/overscan=0/videoformat=5/range=0/colorprim=2/transfer=2/colormatrix=2/chromaloc=0/display-window=0/cll=0, 0/min-luma=0/max-luma=1023/log2-max-poc-lsb=8/vui-timing-info/vui-hrd-info/slices=1/no-opt-qp-pps/no-opt-ref-list-length-pps/no-multi-pass-opt-rps/scenecut-bias=0.05/hist-threshold=0.01/no-opt-cu-delta-qp/aq-motion/no-hdr/no-hdr-opt/no-dhdr10-opt/no-idr-recovery-sei/analysis-reuse-level=5/scale-factor=0/refine-intra=0/refine-inter=0/refine-mv=1/refine-ctu-distortion=0/no-limit-sao/ctu-info=0/no-lowpass-dct/refine-analysis-type=0/copy-pic=1/max-ausize-factor=1.0/no-dynamic-refine/no-single-sei/no-hevc-aq/no-svt/no-field/qp-adaptation-range=1.00/no-scenecut-aware-qp
    Default : Да
    Forced : Нет
    Аудио #1
    Идентификатор : 2
    Формат : AC-3
    Формат/Информация : Audio Coding 3
    Идентификатор кодека : A_AC3
    Продолжительность : 1 ч. 39 м.
    Вид битрейта : Постоянный
    Битрейт : 192 Кбит/сек
    Каналы : 2 канала
    Расположение каналов : Front: L R
    Частота : 48, 0 КГц
    Частота кадров : 31, 250 кадров/сек (1536 SPF)
    Битовая глубина : 16 бит
    Метод сжатия : С потерями
    Размер потока : 136 Мбайт (3%)
    Язык : Russian
    ServiceKind/String : Complete Main
    Default : Да
    Forced : Нет
    Аудио #2
    Идентификатор : 3
    Формат : AC-3
    Формат/Информация : Audio Coding 3
    Идентификатор кодека : A_AC3
    Продолжительность : 1 ч. 39 м.
    Вид битрейта : Постоянный
    Битрейт : 448 Кбит/сек
    Каналы : 6 каналов
    Расположение каналов : Front: L C R, Side: L R, LFE
    Частота : 48, 0 КГц
    Частота кадров : 31, 250 кадров/сек (1536 SPF)
    Битовая глубина : 16 бит
    Метод сжатия : С потерями
    Размер потока : 318 Мбайт (7%)
    Язык : English
    ServiceKind/String : Complete Main
    Default : Нет
    Forced : Нет
    Аудио #3
    Идентификатор : 4
    Формат : AC-3
    Формат/Информация : Audio Coding 3
    Идентификатор кодека : A_AC3
    Продолжительность : 1 ч. 39 м.
    Вид битрейта : Постоянный
    Битрейт : 448 Кбит/сек
    Каналы : 6 каналов
    Расположение каналов : Front: L C R, Side: L R, LFE
    Частота : 48, 0 КГц
    Частота кадров : 31, 250 кадров/сек (1536 SPF)
    Битовая глубина : 16 бит
    Метод сжатия : С потерями
    Размер потока : 318 Мбайт (7%)
    Язык : Chinese
    ServiceKind/String : Complete Main
    Default : Нет
    Forced : Нет
    Текст
    Идентификатор : 5
    Формат : UTF-8
    Идентификатор кодека : S_TEXT/UTF8
    Идентификатор кодека/Информация : UTF-8 Plain Text
    Продолжительность : 1 ч. 35 м.
    Битрейт : 35 бит/сек
    ElementCount : 939
    Размер потока : 24, 9 Кбайт (0%)
    Язык : English
    Default : Нет
    Forced : Нет
    Меню
    00: 00: 00.000 : en: Chapter 01
    00: 04: 29.625 : en: Chapter 02
    00: 10: 26.708 : en: Chapter 03
    00: 16: 52.791 : en: Chapter 04
    00: 22: 43.541 : en: Chapter 05
    00: 27: 42.250 : en: Chapter 06
    00: 32: 41.208 : en: Chapter 07
    00: 38: 10.041 : en: Chapter 08
    00: 44: 17.375 : en: Chapter 09
    00: 49: 38.125 : en: Chapter 10
    00: 54: 35.500 : en: Chapter 11
    00: 59: 18.791 : en: Chapter 12
    01: 04: 12.791 : en: Chapter 13
    01: 08: 58.958 : en: Chapter 14
    01: 15: 38.166 : en: Chapter 15
    01: 20: 22.041 : en: Chapter 16
    01: 27: 52.916 : en: Chapter 17
    01: 31: 59.583 : en: Chapter 18


    Онлайн видео Белая змея


    Белая змея / Bai She: Yuan Qi / White Snake (2019) BDRip [H.265 / 1080p-LQ] [10-bit] [DVO] торрент скачать бесплатно
    Рейтинг →
     (голосов: 1, оценка 5/5, голосовать можно 1 раз )

    Другие торренты по теме:

  • Белая змея / Baishe: Yuanqi / White Snake (2019) BDRemux [H.264 / 1080p] [DVO]


    • Комментарии (0):

      Информация

      Информация

        Посетители, находящиеся в группе Гости, не могут оставлять комментарии в данной новости.

        ↓ Меню




        Популярное

        Жила-была царевна (2015-2019) WEB-DLRip [H.264 / 720p-LQ] (сезон 1, серии 1-18 из 26) [Обновляемая]

        (скачиваний: 3)
        Сергей Матвеев | Полный курс английского языка для лентяев (2016) [PDF]

        (скачиваний: 3)
        Серия книг | Образовательная манга (2010 - 2015) [PDF]

        (скачиваний: 3)
        Gekijouban KanColle | Kantai Collection Movie | Fleet Girls Collection: Movie Sequence| Коллекционная флотилия на большом экране [2016, Movie] BDrip 720p 10bit raw

        (скачиваний: 3)
        Свинка Пеппа / Peppa Pig (2004-2012) SATRip (1-4 сезоны: 208 серий из 209) скачать через торрент бесплатно

        (скачиваний: 2)
        Соман Чайнани | Цикл: «Школа Добра и Зла» [5 книг] (2018-2019) [FB2]

        (скачиваний: 1)
        Ева Ибботсон | Агентство «Фантом в каждый дом» (2018) [FB2, EPUB]

        (скачиваний: 1)
        Teito Monogatari / Doomed Megalopolis / Столичная история [1991, OVA, 4 ep.] DVDRip raw +eng

        (скачиваний: 1)
        Эндрю Лумис | Искусное рисование (2015) [PDF]

        (скачиваний: 1)
        Джим Роджерс | Сделайте ваших детей успешными (2013) [PDF, EPUB] скачать через торрент бесплатно

        (скачиваний: 1)