Подписывайся на наш канал в Telegram https://t.me/torrentok и получи доступ к торрентам без ограничений!
.
Авторизация | Регистрация
bitok.xyz
Торрент скачать бесплатно Мультфильмы торрент скачать Кунг-фу Панда / Kung Fu Panda (2008, 2011, 2016) BDRip [H.264 / 1080p] [Трилогия] торрент скачать бесплатно


    Кунг-фу Панда / Kung Fu Panda (2008, 2011, 2016) BDRip [H.264 / 1080p] [Трилогия] торрент скачать бесплатно

    Дата: 17-02-2020, 05:00 | .torrent скачали: 0

    Кунг-фу Панда / Kung Fu Panda (2008, 2011, 2016) BDRip [H.264 / 1080p] [Трилогия]Год выпуска: 2008, 2011, 2016
    Производство: США/DreamWorks
    Жанр: мультфильм, боевик, комедия, приключения, семейный
    Режиссер: Марк Осборн, Джон Стивенсон, Дженнифер Ю, Алессандро Карлони

    Описание

    Спасение Долины Мира и всех ее обитателей от непобедимого и безжалостного мастера Тай Лунга должно лечь на плечи Воина Дракона, Избранного среди лучших из лучших, коим становится… неуклюжий, ленивый и вечно голодный панда По.
    Ему предстоит долгий и трудный путь к вершинам мастерства кунг-фу бок о бок с легендарными воинами: Тигрой, Обезьяной, Богомолом, Гадюкой и Журавлем. По постигнет тайну древнего Свитка и станет Воином Дракона только в том случае, если сможет поверить в себя…
    Продолжительность: 01: 32: 09/01: 30: 24/01: 34: 55
    Качество видео: BDRip 1080p
    Перевод: Дублированный
    Субтитры: русские, английские
    Видео: AVC/H.264, 1920x810/1920x816, ~7500 - 9000 kbps
    Аудио 1: AC3, 6 ch, 384/640 kbps, Русский (DUB)
    Аудио 2: DTS, 6 ch, 1510 kbps, АнглийскийКунг-фу Панда (2008)/Kung Fu Panda (2008) BDRip H.264/1080p
    Производство: США, DreamWorks
    Жанр: мультфильм, боевик, комедия, приключения, семейный
    Режиссер: Марк Осборн, Джон Стивенсон

    Описание

    Спасение Долины Мира и всех ее обитателей от непобедимого и безжалостного мастера Тай Лунга должно лечь на плечи Воина Дракона, Избранного среди лучших из лучших, коим становится… неуклюжий, ленивый и вечно голодный панда По.
    Ему предстоит долгий и трудный путь к вершинам мастерства кунг-фу бок о бок с легендарными воинами: Тигрой, Обезьяной, Богомолом, Гадюкой и Журавлем. По постигнет тайну древнего Свитка и станет Воином Дракона только в том случае, если сможет поверить в себя…

    Возраст: 0+ (для любой зрительской аудитории)
    Рейтинг MPAA: PG (рекомендуется присутствие родителей)
    Продолжительность: 01: 32: 09
    Качество видео: BDRip 1080p
    Перевод: Дублированный
    Субтитры: русские, английские
    Видео: AVC/H.264, 1920x810, ~ 7500 kbps
    Аудио 1: AC3, 6 ch, 384 kbps, Русский (DUB)
    Аудио 2: DTS, 6 ch, 1510, АнглийскийОбщее
    Уникальный идентификатор : 220225322390722593270204557522494199894 (0xA5ADDAB2C79DEA72B8E53DF6DE7E9856)
    Полное имя : D: MULTPandaKung.Fu.Panda.2008.1080p.BluRay.mkv
    Формат : Matroska
    Версия формата : Version 4
    Размер файла : 6, 05 Гбайт
    Продолжительность : 1 ч. 32 м.
    Общий поток : 9398 Кбит/сек
    Название фильма : HDclub
    Дата кодирования : UTC 2020-02-16 04: 27: 12
    Программа кодирования : mkvmerge v8.2.0 (\'World of Adventure\') 64bit
    Библиотека кодирования : libebml v1.3.1 + libmatroska v1.4.2
    Attachments : CronosPro-Bold.ttf/CronosPro-Semibold.ttf/CronosPro-SemiboldIt.ttf/times.ttf/timesbd.ttf
    Видео
    Идентификатор : 1
    Формат : AVC
    Формат/Информация : Advanced Video Codec
    Профиль формата : High@L4.1
    Настройки формата : CABAC/5 Ref Frames
    Параметр CABAC формата : Да
    Параметр RefFrames формата : 5 кадров
    Идентификатор кодека : V_MPEG4/ISO/AVC
    Продолжительность : 1 ч. 32 м.
    Битрейт : 7500 Кбит/сек
    Ширина : 1920 пикселей
    Высота : 810 пикселей
    Соотношение сторон : 2, 40: 1
    Режим частоты кадров : Постоянный
    Частота кадров : 23, 976 кадра/сек
    Цветовое пространство : YUV
    Субдискретизация насыщенности : 4: 2: 0
    Битовая глубина : 8 бит
    Тип развёртки : Прогрессивная
    Бит/(Пиксели*Кадры) : 0.201
    Размер потока : 4, 83 Гбайт (80%)
    Библиотека кодирования : x264 core 65 r1016M dbc5ef0
    Настройки программы : cabac=1/ref=5/deblock=1: -3: -3/analyse=0x3: 0x133/me=umh/subme=9/psy_rd=0.9: 0.0/mixed_ref=1/me_range=16/chroma_me=1/trellis=0/8x8dct=1/cqm=0/deadzone=21, 11/chroma_qp_offset=-2/threads=3/nr=0/decimate=1/mbaff=0/bframes=5/b_pyramid=1/b_adapt=2/b_bias=0/direct=1/wpredb=1/keyint=250/keyint_min=25/scenecut=40(pre)/rc=2pass/bitrate=7500/ratetol=1.0/qcomp=0.60/qpmin=10/qpmax=21/qpstep=4/cplxblur=20.0/qblur=0.5/ip_ratio=1.40/pb_ratio=1.30/aq=1: 0.70
    Язык : English
    Default : Да
    Forced : Нет
    Аудио #1
    Идентификатор : 2
    Формат : AC-3
    Формат/Информация : Audio Coding 3
    Коммерческое название : Dolby Digital
    Идентификатор кодека : A_AC3
    Продолжительность : 1 ч. 32 м.
    Вид битрейта : Постоянный
    Битрейт : 384 Кбит/сек
    Каналы : 6 каналов
    ChannelLayout : L R C LFE Ls Rs
    Частота : 48, 0 КГц
    Частота кадров : 31, 250 кадров/сек (1536 SPF)
    Метод сжатия : С потерями
    Размер потока : 253 Мбайт (4%)
    Заголовок : Дубляж
    Язык : Russian
    ServiceKind/String : Complete Main
    Default : Да
    Forced : Нет
    Аудио #2
    Идентификатор : 3
    Формат : DTS
    Формат/Информация : Digital Theater Systems
    Идентификатор кодека : A_DTS
    Продолжительность : 1 ч. 32 м.
    Вид битрейта : Постоянный
    Битрейт : 1510 Кбит/сек
    Каналы : 6 каналов
    ChannelLayout : C L R Ls Rs LFE
    Частота : 48, 0 КГц
    Частота кадров : 93, 750 кадра/сек (512 SPF)
    Битовая глубина : 24 бит
    Метод сжатия : С потерями
    Размер потока : 995 Мбайт (16%)
    Язык : English
    Default : Нет
    Forced : Нет
    Текст #1
    Идентификатор : 4
    Формат : UTF-8
    Идентификатор кодека : S_TEXT/UTF8
    Идентификатор кодека/Информация : UTF-8 Plain Text
    Продолжительность : 1 ч. 22 м.
    Битрейт : 74 бит/сек
    ElementCount : 943
    Размер потока : 45, 2 Кбайт (0%)
    Язык : Russian
    Default : Да
    Forced : Нет
    Текст #2
    Идентификатор : 5
    Формат : ASS
    Идентификатор кодека : S_TEXT/ASS
    Идентификатор кодека/Информация : Advanced Sub Station Alpha
    Продолжительность : 1 ч. 25 м.
    Битрейт : 93 бит/сек
    ElementCount : 987
    Метод сжатия : Без потерь
    Размер потока : 58, 4 Кбайт (0%)
    Язык : English
    Default : Нет
    Forced : Нет


    Скриншоты для ознакомления



    Все одноименные релизы в Клубе Кунг-фу Панда 2 (2011)/Kung Fu Panda 2 (2011) BDRip H.264/1080p
    Производство: США, DreamWorks
    Жанр: мультфильм, боевик, комедия, приключения, семейный
    Режиссер: Дженнифер Ю

    Описание

    Панда По наконец-то исполнит свою мечту, станет Воином Дракона и со своими друзьями и мастерами кунг-фу — Неистовой Пятеркой — защитит Великую Долину от страшного злодея и его легиона…

    Возраст: 0+ (для любой зрительской аудитории)
    Рейтинг MPAA: PG (рекомендуется присутствие родителей)
    Продолжительность: 01: 30: 24
    Качество видео: BDRip 1080p
    Перевод: Дублированный
    Субтитры: русские, английские
    Видео: AVC/H.264, 1920x816, ~9000 kbps
    Аудио 1: AC3, 6 ch, 640 kbps, Русский (DUB)
    Аудио 2: DTS, 6 ch, 1510, АнглийскийОбщее
    Уникальный идентификатор : 195346565740770913725178663046988167914 (0x92F6614AE9CD2CC086DC4410630BFAEA)
    Полное имя : D: MULTPandaKung.Fu.Panda.2.2011.1080p.BluRay.mkv
    Формат : Matroska
    Версия формата : Version 4
    Размер файла : 7, 04 Гбайт
    Продолжительность : 1 ч. 30 м.
    Общий поток : 11, 2 Мбит/сек
    Название фильма : Kung Fu Panda 2 (2011) - Release for HDCLUB
    Дата кодирования : UTC 2020-02-16 04: 37: 48
    Программа кодирования : mkvmerge v8.2.0 (\'World of Adventure\') 64bit
    Библиотека кодирования : libebml v1.3.1 + libmatroska v1.4.2
    Обложка : Yes
    Attachments : cover.jpg/xlog.txt
    Видео
    Идентификатор : 1
    Формат : AVC
    Формат/Информация : Advanced Video Codec
    Профиль формата : High@L4.1
    Настройки формата : CABAC/5 Ref Frames
    Параметр CABAC формата : Да
    Параметр RefFrames формата : 5 кадров
    Идентификатор кодека : V_MPEG4/ISO/AVC
    Продолжительность : 1 ч. 30 м.
    Битрейт : 9000 Кбит/сек
    Ширина : 1920 пикселей
    Высота : 816 пикселей
    Соотношение сторон : 2, 35: 1
    Режим частоты кадров : Постоянный
    Частота кадров : 23, 976 (24000/1001) кадра/сек
    Цветовое пространство : YUV
    Субдискретизация насыщенности : 4: 2: 0
    Битовая глубина : 8 бит
    Тип развёртки : Прогрессивная
    Бит/(Пиксели*Кадры) : 0.240
    Размер потока : 5, 68 Гбайт (81%)
    Заголовок : Release for HDCLUB
    Библиотека кодирования : x264 core 119 r2106 07efeb4
    Настройки программы : cabac=1/ref=5/deblock=1: -3: -3/analyse=0x3: 0x133/me=umh/subme=11/psy=1/psy_rd=0.90: 0.00/mixed_ref=1/me_range=48/chroma_me=1/trellis=2/8x8dct=1/cqm=0/deadzone=21, 11/fast_pskip=0/chroma_qp_offset=-2/threads=12/sliced_threads=0/nr=0/decimate=0/interlaced=0/bluray_compat=0/constrained_intra=0/bframes=7/b_pyramid=2/b_adapt=2/b_bias=0/direct=3/weightb=1/open_gop=0/weightp=2/keyint=250/keyint_min=23/scenecut=40/intra_refresh=0/rc_lookahead=40/rc=2pass/mbtree=1/bitrate=9000/ratetol=1.0/qcomp=0.60/qpmin=0/qpmax=69/qpstep=4/cplxblur=20.0/qblur=0.5/ip_ratio=1.40/aq=2: 0.80
    Язык : English
    Default : Да
    Forced : Нет
    Аудио #1
    Идентификатор : 2
    Формат : AC-3
    Формат/Информация : Audio Coding 3
    Коммерческое название : Dolby Digital
    Идентификатор кодека : A_AC3
    Продолжительность : 1 ч. 30 м.
    Вид битрейта : Постоянный
    Битрейт : 640 Кбит/сек
    Каналы : 6 каналов
    ChannelLayout : L R C LFE Ls Rs
    Частота : 48, 0 КГц
    Частота кадров : 31, 250 кадров/сек (1536 SPF)
    Метод сжатия : С потерями
    Размер потока : 414 Мбайт (6%)
    Заголовок : AC3 5.1 @ 640 kbps - Дублированный, Blu-ray CEE
    Язык : Russian
    ServiceKind/String : Complete Main
    Default : Да
    Forced : Нет
    Аудио #2
    Идентификатор : 3
    Формат : DTS
    Формат/Информация : Digital Theater Systems
    Идентификатор кодека : A_DTS
    Продолжительность : 1 ч. 30 м.
    Вид битрейта : Постоянный
    Битрейт : 1509 Кбит/сек
    Каналы : 6 каналов
    ChannelLayout : C L R Ls Rs LFE
    Частота : 48, 0 КГц
    Частота кадров : 93, 750 кадра/сек (512 SPF)
    Битовая глубина : 24 бит
    Метод сжатия : С потерями
    Размер потока : 976 Мбайт (14%)
    Заголовок : DTS 5.1 @ 1536 kbps
    Язык : English
    Default : Нет
    Forced : Нет
    Текст #1
    Идентификатор : 4
    Формат : UTF-8
    Идентификатор кодека : S_TEXT/UTF8
    Идентификатор кодека/Информация : UTF-8 Plain Text
    Продолжительность : 1 ч. 30 м.
    Битрейт : 72 бит/сек
    ElementCount : 877
    Размер потока : 47, 5 Кбайт (0%)
    Заголовок : Blu-ray CEE
    Язык : Russian
    Default : Нет
    Forced : Нет
    Текст #2
    Идентификатор : 5
    Формат : UTF-8
    Идентификатор кодека : S_TEXT/UTF8
    Идентификатор кодека/Информация : UTF-8 Plain Text
    Продолжительность : 1 ч. 30 м.
    Битрейт : 42 бит/сек
    ElementCount : 871
    Размер потока : 28, 1 Кбайт (0%)
    Язык : English
    Default : Нет
    Forced : Нет
    Меню
    00: 00: 00.000 : en: Chapter 1
    00: 03: 54.275 : en: Chapter 2
    00: 10: 35.343 : en: Chapter 3
    00: 16: 09.385 : en: Chapter 4
    00: 21: 15.773 : en: Chapter 5
    00: 29: 56.628 : en: Chapter 6
    00: 36: 53.878 : en: Chapter 7
    00: 41: 14.180 : en: Chapter 8
    00: 49: 44.815 : en: Chapter 9
    00: 54: 06.826 : en: Chapter 10
    00: 58: 54.781 : en: Chapter 11
    01: 05: 09.238 : en: Chapter 12
    01: 11: 43.799 : en: Chapter 13
    01: 15: 31.902 : en: Chapter 14
    01: 21: 15.871 : en: Chapter 15


    Скриншоты для ознакомления



    Все одноименные релизы в Клубе Кунг-фу Панда 3 (2016)/Kung Fu Panda 3 (2016) BDRip H.264/1080p
    Производство: США, Китай/DreamWorks
    Жанр: мультфильм, боевик, комедия, приключения, семейный
    Режиссер: Алессандро Карлони, Дженнифер Ю

    Описание

    Воссоединившись со своим давно потерянным отцом, По отправляется в тайный рай для панд, где его ожидает встреча с множеством веселых сородичей. Однако вскоре злодей Кай начинает зачистку — он уничтожает кунг-фу мастеров по всему Китаю.
    По предстоит сделать невозможное — обучить боевому искусству деревню, полную его веселых, неуклюжих собратьев, и тем самым превратить их в отряд кунг-фу панд.

    Возраст: 0+ (для любой зрительской аудитории)
    Рейтинг MPAA: PG (рекомендуется присутствие родителей)
    Продолжительность: 01: 34: 55
    Качество видео: BDRip 1080p
    Перевод: Дублированный
    Субтитры: русские, английские
    Видео: AVC/H.264, 1920x816, ~8127 kbps
    Аудио 1: AC3, 6 ch, 640 kbps, Русский (DUB)
    Аудио 2: DTS, 6 ch, 1510, АнглийскийОбщее
    Уникальный идентификатор : 196392915843023430564423141332655305583 (0x93BFE655EF4B55B7B6C5F0B1BEC4736F)
    Полное имя : D: MULTPandaKung.Fu.Panda.3.2016.1080p.BluRay.mkv
    Формат : Matroska
    Версия формата : Version 4
    Размер файла : 6, 82 Гбайт
    Продолжительность : 1 ч. 34 м.
    Общий поток : 10, 3 Мбит/сек
    Название фильма : Кунг-фу Панда 3/Kung Fu Panda 3 (2016) BDRip 1080p by Elheym HQCLUB
    Дата кодирования : UTC 2020-02-15 15: 54: 20
    Программа кодирования : mkvmerge v8.2.0 (\'World of Adventure\') 64bit
    Библиотека кодирования : libebml v1.3.1 + libmatroska v1.4.2
    Обложка : Yes
    Attachments : cover.jpg
    Видео
    Идентификатор : 1
    Формат : AVC
    Формат/Информация : Advanced Video Codec
    Профиль формата : High@L4.1
    Настройки формата : CABAC/4 Ref Frames
    Параметр CABAC формата : Да
    Параметр RefFrames формата : 4 кадра
    Идентификатор кодека : V_MPEG4/ISO/AVC
    Продолжительность : 1 ч. 34 м.
    Битрейт : 8127 Кбит/сек
    Ширина : 1920 пикселей
    Высота : 816 пикселей
    Соотношение сторон : 2, 35: 1
    Режим частоты кадров : Постоянный
    Частота кадров : 23, 976 (24000/1001) кадра/сек
    Цветовое пространство : YUV
    Субдискретизация насыщенности : 4: 2: 0
    Битовая глубина : 8 бит
    Тип развёртки : Прогрессивная
    Бит/(Пиксели*Кадры) : 0.216
    Размер потока : 5, 39 Гбайт (79%)
    Заголовок : Кунг-фу Панда 3/Kung Fu Panda 3 (2016) BDRip 1080p by Elheym
    Библиотека кодирования : x264 core 148 r2692+54 69a6f49 t_mod_Custom 8-bit@all X86_64
    Настройки программы : cabac=1/ref=4/deblock=1: -3: -2/analyse=0x3: 0x113/me=umh/subme=10/psy=1/fade_compensate=0.00/psy_rd=0.75: 0.00/mixed_ref=1/me_range=32/chroma_me=1/trellis=2/8x8dct=1/cqm=0/deadzone=21, 11/fast_pskip=0/chroma_qp_offset=-2/threads=6/lookahead_threads=2/sliced_threads=0/nr=0/decimate=1/interlaced=0/bluray_compat=0/constrained_intra=0/fgo=0/bframes=8/b_pyramid=2/b_adapt=2/b_bias=0/direct=3/weightb=1/open_gop=0/weightp=2/keyint=230/keyint_min=23/scenecut=40/intra_refresh=0/rc_lookahead=80/rc=crf/mbtree=0/crf=17.6000/qcomp=0.70/qpmin=0: 0: 0/qpmax=69: 69: 69/qpstep=4/vbv_maxrate=50000/vbv_bufsize=62500/crf_max=0.0/nal_hrd=none/filler=0/ip_ratio=1.40/pb_ratio=1.30/aq=3: 0.70/aq-sensitivity=10.00/aq-factor=1.00: 1.00: 1.00/aq2=0/aq3=0
    Язык : English
    Default : Да
    Forced : Нет
    Аудио #1
    Идентификатор : 2
    Формат : AC-3
    Формат/Информация : Audio Coding 3
    Коммерческое название : Dolby Digital
    Идентификатор кодека : A_AC3
    Продолжительность : 1 ч. 34 м.
    Вид битрейта : Постоянный
    Битрейт : 640 Кбит/сек
    Каналы : 6 каналов
    ChannelLayout : L R C LFE Ls Rs
    Частота : 48, 0 КГц
    Частота кадров : 31, 250 кадров/сек (1536 SPF)
    Метод сжатия : С потерями
    Размер потока : 434 Мбайт (6%)
    Заголовок : RUS BD CEE
    Язык : Russian
    ServiceKind/String : Complete Main
    Default : Да
    Forced : Нет
    Аудио #2
    Идентификатор : 3
    Формат : DTS ES
    Формат/Информация : Digital Theater Systems
    Коммерческое название : DTS-ES Matrix
    Идентификатор кодека : A_DTS
    Продолжительность : 1 ч. 34 м.
    Вид битрейта : Постоянный
    Битрейт : 1509 Кбит/сек
    Каналы : 6 каналов
    Channel(s)_Original : 7 каналов
    ChannelLayout_Original : C L R Ls Rs Cs LFE
    Частота : 48, 0 КГц
    Частота кадров : 93, 750 кадра/сек (512 SPF)
    Битовая глубина : 24 бит
    Метод сжатия : С потерями
    Размер потока : 1, 00 Гбайт (15%)
    Заголовок : DTS 5.1 @ 1509 kbps - Original
    Язык : English
    Default : Нет
    Forced : Нет
    Текст #1
    Идентификатор : 4
    Формат : UTF-8
    Идентификатор кодека : S_TEXT/UTF8
    Идентификатор кодека/Информация : UTF-8 Plain Text
    Продолжительность : 1 ч. 19 м.
    Битрейт : 0 бит/сек
    ElementCount : 2
    Размер потока : 36, 0 байт (0%)
    Заголовок : Forced
    Язык : Russian
    Default : Да
    Forced : Нет
    Текст #2
    Идентификатор : 5
    Формат : UTF-8
    Идентификатор кодека : S_TEXT/UTF8
    Идентификатор кодека/Информация : UTF-8 Plain Text
    Продолжительность : 1 ч. 34 м.
    Битрейт : 77 бит/сек
    ElementCount : 1260
    Размер потока : 53, 2 Кбайт (0%)
    Заголовок : Full, BD
    Язык : Russian
    Default : Нет
    Forced : Нет
    Текст #3
    Идентификатор : 6
    Формат : UTF-8
    Идентификатор кодека : S_TEXT/UTF8
    Идентификатор кодека/Информация : UTF-8 Plain Text
    Продолжительность : 1 ч. 29 м.
    Битрейт : 56 бит/сек
    ElementCount : 1471
    Размер потока : 36, 8 Кбайт (0%)
    Заголовок : Full, V1
    Язык : English
    Default : Нет
    Forced : Нет
    Текст #4
    Идентификатор : 7
    Формат : UTF-8
    Идентификатор кодека : S_TEXT/UTF8
    Идентификатор кодека/Информация : UTF-8 Plain Text
    Продолжительность : 1 ч. 29 м.
    Битрейт : 64 бит/сек
    ElementCount : 1777
    Размер потока : 42, 4 Кбайт (0%)
    Заголовок : SDH
    Язык : English
    Default : Нет
    Forced : Нет
    Текст #5
    Идентификатор : 8
    Формат : UTF-8
    Идентификатор кодека : S_TEXT/UTF8
    Идентификатор кодека/Информация : UTF-8 Plain Text
    Продолжительность : 1 ч. 29 м.
    Битрейт : 87 бит/сек
    ElementCount : 1777
    Размер потока : 57, 7 Кбайт (0%)
    Заголовок : SDH Colored
    Язык : English
    Default : Нет
    Forced : Нет
    Меню
    00: 00: 00.000 : : Chapter 01
    00: 05: 21.779 : : Chapter 03
    00: 08: 10.239 : : Chapter 05
    00: 10: 00.016 : : Chapter 07
    00: 12: 26.036 : : Chapter 09
    00: 15: 24.214 : : Chapter 11
    00: 19: 08.230 : : Chapter 13
    00: 24: 39.394 : : Chapter 15
    00: 30: 17.607 : : Chapter 17
    00: 33: 53.990 : : Chapter 19
    00: 36: 18.259 : : Chapter 21
    00: 39: 55.643 : : Chapter 23
    00: 43: 32.651 : : Chapter 25
    00: 46: 45.844 : : Chapter 27
    00: 51: 41.181 : : Chapter 29
    00: 56: 04.611 : : Chapter 31
    00: 59: 48.167 : : Chapter 33
    01: 02: 11.310 : : Chapter 35
    01: 05: 26.964 : : Chapter 37
    01: 10: 16.837 : : Chapter 39
    01: 14: 06.900 : : Chapter 41
    01: 17: 06.580 : : Chapter 43
    01: 20: 34.788 : : Chapter 45
    01: 24: 21.181 : : Chapter 47
    01: 34: 54.438 : : Chapter 49


    Скриншоты для ознакомления



    Все одноименные релизы в Клубе
    Скриншоты для ознакомления



    Все одноименные релизы в Клубе
    Время раздачи: c 5 до 19 мск (до появления первых 3-5 скачавших)
    Год выпуска: 2008, 2011, 2016
    Производство: США/DreamWorks
    Жанр: мультфильм, боевик, комедия, приключения, семейный
    Режиссер: Марк Осборн, Джон Стивенсон, Дженнифер Ю, Алессандро Карлони

    Описание

    Спасение Долины Мира и всех ее обитателей от непобедимого и безжалостного мастера Тай Лунга должно лечь на плечи Воина Дракона, Избранного среди лучших из лучших, коим становится… неуклюжий, ленивый и вечно голодный панда По.
    Ему предстоит долгий и трудный путь к вершинам мастерства кунг-фу бок о бок с легендарными воинами: Тигрой, Обезьяной, Богомолом, Гадюкой и Журавлем. По постигнет тайну древнего Свитка и станет Воином Дракона только в том случае, если сможет поверить в себя…
    Продолжительность: 01: 32: 09/01: 30: 24/01: 34: 55
    Качество видео: BDRip 1080p
    Перевод: Дублированный
    Субтитры: русские, английские


    Онлайн видео Кунг-фу Панда


    Кунг-фу Панда / Kung Fu Panda (2008, 2011, 2016) BDRip [H.264 / 1080p] [Трилогия] торрент скачать бесплатно
    Рейтинг →
     (голосов: 1, оценка 5/5, голосовать можно 1 раз )

    Другие торренты по теме:

  • Кунг-Фу Панда: Захватывающие Легенды / Удивительные / Афигенские / Kung-Fu Panda: Legends of Awesomeness (2013) WEB-DLRip (Сезон 3, серии 1-11) (Обновляемая)
  • Кунг-фу Панда 3 / Kung Fu Panda 3 (2016) WEBRip [H.264 / 1080p] [Тизер] [JP] скачать через торрент бесплатно
  • Кунг-фу Панда 3 / Kung Fu Panda 3 (2016) WEBRip [H.264 / 1080p] [Трейлер] скачать через торрент бесплатно
  • Kung Fu Panda / Кунг-фу Панда (2008) [Xbox360] [RegionFree] [FreeBoot] [Unofficial] [Ru] | R.G.DShock скачать через торрент бесплатно
  • Кунг-фу Панда / Kung Fu Panda (2008) BDRip [H.264 / 1080p]
  • Кунг-фу Панда / Kung Fu Panda (2008) BDRip [H.264 / 1080p-LQ]
  • Кунг-фу Панда 3 / Kung Fu Panda 3 (2016) CamRip
  • Кунг-фу Панда 2 / Kung Fu Panda 2 (2011) BDRip [H.264 / 1080p-LQ]


    • Комментарии (0):

      Информация

      Информация

        Посетители, находящиеся в группе Гости, не могут оставлять комментарии в данной новости.

        ↓ Меню




        ↓ Опрос

        Вы добавили сайт в закладки?
        Да
        Нет


        Популярное

        Фиксики против Кработов (2019) WEB-DLRip

        (скачиваний: 134)
        Рик и Морти / Rick and Morty (2015) WEB-DL [H.264 / 1080p] (Сезон 2, серии 1-10 из 10) Сыендук [EN / RU Sub] скачать через торрент бесплатно

        (скачиваний: 109)
        М.Ю. Демидова | ЕГЭ-2020. Физика. 30 типовых вариантов (2020) [PDF]

        (скачиваний: 80)
        Малышарики (2015-2019) WEB-DL [H.264 / 1080p-LQ] (серии 1-154 из 208) [Обновляемая]

        (скачиваний: 67)
        Рик и Морти / Rick and Morty (2013) BDRip [H.264 / 720p-LQ] (сезон 1, серии 1-11 из 11) Сыендук

        (скачиваний: 65)
        Рик и Морти / Rick and Morty (2013) BDRip [H.264 / 1080p] (Сезон 1, серии 1-11 из 11) Сыендук [EN Sub] скачать через торрент бесплатно

        (скачиваний: 46)
        Фиксики против Кработов (2019) WEB-DL [H.264 / 1080p-LQ]

        (скачиваний: 32)
        Свинка Пеппа / Peppa Pig (2004-2012) SATRip (1-4 сезоны: 208 серий из 209) скачать через торрент бесплатно

        (скачиваний: 28)
        Рик и Морти / Rick and Morty (2017) WEBRip [H.264 / 720p-LQ] (Сезон 3, серии 1 из ) Сыендук

        (скачиваний: 26)
        Роботы-поезда / Robot Trains (2017) WEB-DL [H.264 / 720p-LQ] (1 сезон, 32 серий из 32)

        (скачиваний: 21)