ВАЖНО! Сайт скоро заблокируют! Подписывайся на наш канал в Telegram https://t.me/torrentok и получи доступ к торрентам без ограничений!
.
Авторизация | Регистрация
bitok.xyz
Торрент скачать бесплатно Мультфильмы торрент скачать Angel Beats! | Ангельские Ритмы! [2010, TV, 13 ep + 3 sp] BDRip 1080p 10-bit raw+rus торрент скачать бесплатно

    Angel Beats! | Ангельские Ритмы! [2010, TV, 13 ep + 3 sp] BDRip 1080p 10-bit raw+rus торрент скачать бесплатно

    Дата: 17-02-2020, 05:00 | .torrent скачали: 0

    Angel Beats! | Ангельские Ритмы! [2010, TV, 13 ep + 3 sp] BDRip 1080p 10-bit raw+rusТип: TV
    Жанр: Приключения, Комедия, Мистика, Драма
    Продолжительность: 15 Эпизодов по 25 Мин; 1 Эпизод 2 Мин.
    Количество серий: 15 Эпизодов + 1 Альтернативный эпилог
    Дата выпуска: c03.04.2010 по26.06.2010
    Автор оригинала: Маэда Дзюн
    Режиссер: Киси Сэйдзи
    Производство: P.A. Works/ Япония

    World-Art |AniDB |MyAnimelist |Shikimori

    Описание

    А что будет после смерти? Бесчисленные поколения людей задавались этим вопросом, задались им и создатели аниме.
    Юдзуру Отонаси просыпается в незнакомом месте, не помня — ни кто он, ни что с ним случилось. Какая-то ненормальная школьница по имени Юри Накамура утверждает, что Юдзуру умер, и призывает его присоединиться к Фронту загробного мира. Мало того, в руках у неё винтовка, из которой она целится в другую девушку, называя ту ангелом. Помешав ненормальной выстрелить, Юдзуру подходит к ангелу и пытается понять, что же тут происходит и почему её зовут ангелом. На что девушка сообщает, что она вовсе не ангел, а президент школьного совета по имени Канадэ Татибана, и что Юдзуру действительно умер. В доказательство этого рука Канадэ превращается в клинок, которым она пронзает грудь Юдзуру.
    Приходит в себя Юдзуру в школьном медпункте, сам он невредим, а одежда его залита кровью...
    Автор: morr ©Shikimori
    Качество Видео: BDRip,
    Видео: AVC/x264 , 1920x1080, 23.976 fps, 11.5 Mb/s, 0.231 bpp10-bit
    Язык Озвучки: Японский и Русский
    Озвучка: Двухголосая, Многоголосая закадровая
    TV
    Аудио №1: Vorbis2.0 , 48.0 kHz, 214 kb/s(RG Genshiken) |Язык:
    Аудио №2: AAC2.0 , 48.0 kHz, 192 kb/s(AniMedia) |Язык:
    Аудио №3: AAC2.0 , 48.0 kHz, 192 kb/s(AniDub) |Язык:
    Аудио №4: AAC2.0 , 48.0 kHz, 192 kb/s(GetSmart) |Язык:
    Аудио №5: FLAC2.0 , 48.0 kHz, 1 406 kb/s 24-Bit(Original) |Язык:
    Special 1
    Аудио №1: AAC2.0 , 48.0 kHz, 192 kb/s(AniDub) |Язык:
    Аудио №2: FLAC2.0 , 48.0 kHz, 1 075 kb/s 24-Bit(Original) |Язык:
    Субтитры: Надписи/Полные(KBM TeaM) /(Seiya aXtr25)

    Скриншоты для ознакомления





    01 (TV). Departure (Начало пути)
    02 (TV). Guild (Гильдия)
    03 (SP1). Hell\'s Kitchen (Адская кухня)
    04 (TV). My Song (Моя песня)
    05 (TV). Day Game (День игры)
    06 (SP2). Stairway to Heaven (Лестница в небеса)
    07 (TV). Favorite Flavor (Любимый вкус)
    08 (TV). Family Affair (Семейное дело)
    09 (TV). Alive (Живой)
    10 (TV). Dancer in the Dark (Танцующая в темноте)
    11 (TV). In Your Memory (В твоей памяти)
    12 (TV). Goodbye Days (Дни прощания)
    13 (TV). Change the World (Изменить мир)
    14 (TV). Knockin\' on Heaven\'s Door (Достучаться до небес)
    15 (TV). Graduation (Конец пути)
    16 (SP3). Another Epilogue (Ещё одна концовка)

    General
    Unique ID : 263279437553073876931779322432428461522 (0xC611C676F2783F480B89FB986B904DD2)
    Complete name : J: АнимеАнгельские Ритмы (Angel Beats) BDRip (2010)1 (TV). Departure (Начало пути).mkv
    Format : Matroska
    Format version : Version 4
    File size : 2.51 GiB
    Duration : 26 min 3 s
    Overall bit rate mode : Variable
    Overall bit rate : 13.8 Mb/s
    Encoded date : UTC 2020-02-16 16: 25: 35
    Writing application : mkvmerge v43.0.0 (\'The Quartermaster\') 64-bit
    Writing library : libebml v1.3.10 + libmatroska v1.5.2
    Attachments : Arial (Regular).ttf/Arial Black (Regular).ttf/Berlin Sans FB (Bold).ttf/Berlin Sans FB (Regular).ttf/Bookman Old Style (Bold Italic).ttf/Calibri (Bold).ttf/Calibri (Regular).ttf/Comic Sans MS (Bold).ttf/Comic Sans MS (Regular).ttf/Domkrat (Bold).ttf/DS Eraser Cyr (Regular).ttf/Gabriola (Regular).ttf/Impress BT Cyr (Regular).ttf/MS Gothic (Family).ttc/PT Sans Caption (Bold).ttf/Times New Roman (Bold).ttf/Times New Roman (Regular).ttf/Trebuchet MS (Bold Italic).ttf/Trebuchet MS (Bold).ttf/Trebuchet MS (Italic).ttf/Trebuchet MS (Regular).ttf/Arial (Bold).ttf/Cambria (Bold).ttf/Century (Regular).ttf/Comic Sans MS (Bold Italic).ttf/Monotype Corsiva (Regular).ttf/Palatino Linotype (Bold).ttf/Bookman Old Style (Bold).ttf/Bookman Old Style (Regular).ttf/Academy (Regular).ttf/Archangelsk (Regular).ttf/BirchCTT (Normal).ttf/Century Gothic (Regular).ttf/DPix_8pt (Regular).ttf/DS Stain (Regular).ttf/KabelCTT Medium (Regular).ttf/Optima Cyr (Bold).ttf/Still Time Cyr (Regular).ttf/Tahoma (Bold).ttf/Tahoma (Regular).ttf/Calibri (Bold Italic).ttf
    Video
    ID : 1
    Format : AVC
    Format/Info : Advanced Video Codec
    Format profile : High 10@L5
    Format settings : CABAC/4 Ref Frames
    Format settings, CABAC : Yes
    Format settings, Reference : 4 frames
    Codec ID : V_MPEG4/ISO/AVC
    Duration : 26 min 3 s
    Bit rate : 11.5 Mb/s
    Width : 1 920 pixels
    Height : 1 080 pixels
    Display aspect ratio : 16: 9
    Frame rate mode : Constant
    Frame rate : 23.976 (24000/1001) FPS
    Color space : YUV
    Chroma subsampling : 4: 2: 0
    Bit depth : 10 bits
    Scan type : Progressive
    Bits/(Pixel*Frame) : 0.231
    Stream size : 2.09 GiB (83%)
    Writing library : x264 core 148 (DJATOM\'s build)
    Encoding settings : cabac=1/ref=4/deblock=1: 1: -1/analyse=0x3: 0x113/me=umh/subme=9/psy=1/fade_compensate=0.00/psy_rd=1.00: 0.00/mixed_ref=1/me_range=32/chroma_me=1/trellis=2/8x8dct=1/cqm=0/deadzone=21, 11/fast_pskip=1/chroma_qp_offset=-2/threads=34/lookahead_threads=5/sliced_threads=0/nr=0/decimate=1/interlaced=0/bluray_compat=0/constrained_intra=0/bframes=9/b_pyramid=2/b_adapt=2/b_bias=0/direct=1/weightb=1/open_gop=0/weightp=2/keyint=250/keyint_min=23/scenecut=40/intra_refresh=0/rc=crf/mbtree=0/crf=15.1000/qcomp=0.72/qpmin=0/qpmax=81/qpstep=4/ip_ratio=1.40/pb_ratio=1.30/aq=1: 0.85
    Language : Japanese
    Default : Yes
    Forced : No
    Color range : Limited
    Color primaries : BT.709
    Transfer characteristics : BT.709
    Matrix coefficients : BT.709
    Audio #1
    ID : 2
    Format : Vorbis
    Format settings, Floor : 1
    Codec ID : A_VORBIS
    Duration : 26 min 2 s
    Bit rate mode : Variable
    Bit rate : 214 kb/s
    Channel(s) : 2 channels
    Sampling rate : 48.0 kHz
    Frame rate : 101.166 FPS (474 SPF)
    Compression mode : Lossy
    Stream size : 35.0 MiB (1%)
    Title : RG Genshiken (Kedra Scrap)
    Writing library : aoTuV 20110424 (UTC 2011-04-24)
    Language : Russian
    Default : Yes
    Forced : No
    Audio #2
    ID : 3
    Format : AAC LC
    Format/Info : Advanced Audio Codec Low Complexity
    Codec ID : A_AAC-2
    Duration : 26 min 3 s
    Bit rate : 192 kb/s
    Channel(s) : 2 channels
    Channel layout : L R
    Sampling rate : 48.0 kHz
    Frame rate : 46.875 FPS (1024 SPF)
    Compression mode : Lossy
    Stream size : 35.8 MiB (1%)
    Title : AniMedia (Say Lupin)
    Language : Russian
    Default : No
    Forced : No
    Audio #3
    ID : 4
    Format : AAC LC
    Format/Info : Advanced Audio Codec Low Complexity
    Codec ID : A_AAC-2
    Duration : 26 min 3 s
    Bit rate : 192 kb/s
    Channel(s) : 2 channels
    Channel layout : L R
    Sampling rate : 48.0 kHz
    Frame rate : 46.875 FPS (1024 SPF)
    Compression mode : Lossy
    Stream size : 35.8 MiB (1%)
    Title : AniDub (OSLIKt)
    Language : Russian
    Default : No
    Forced : No
    Audio #4
    ID : 5
    Format : AAC LC
    Format/Info : Advanced Audio Codec Low Complexity
    Codec ID : A_AAC-2
    Duration : 26 min 2 s
    Bit rate : 192 kb/s
    Channel(s) : 2 channels
    Channel layout : L R
    Sampling rate : 48.0 kHz
    Frame rate : 46.875 FPS (1024 SPF)
    Compression mode : Lossy
    Stream size : 35.8 MiB (1%)
    Title : GetSmart (Persona99)
    Language : Russian
    Default : No
    Forced : No
    Audio #5
    ID : 6
    Format : FLAC
    Format/Info : Free Lossless Audio Codec
    Codec ID : A_FLAC
    Duration : 26 min 3 s
    Bit rate mode : Variable
    Bit rate : 1 406 kb/s
    Channel(s) : 2 channels
    Channel layout : L R
    Sampling rate : 48.0 kHz
    Frame rate : 11.719 FPS (4096 SPF)
    Bit depth : 24 bits
    Compression mode : Lossless
    Stream size : 262 MiB (10%)
    Title : Original
    Writing library : libFLAC 1.2.1 (UTC 2007-09-17)
    Language : Japanese
    Default : No
    Forced : No
    Text #1
    ID : 7
    Format : ASS
    Codec ID : S_TEXT/ASS
    Codec ID/Info : Advanced Sub Station Alpha
    Duration : 25 min 49 s
    Bit rate : 65 b/s
    Count of elements : 114
    Compression mode : Lossless
    Stream size : 12.3 KiB (0%)
    Title : Forced (KBM TeaM)
    Language : Russian
    Default : Yes
    Forced : No
    Text #2
    ID : 8
    Format : ASS
    Codec ID : S_TEXT/ASS
    Codec ID/Info : Advanced Sub Station Alpha
    Duration : 25 min 49 s
    Bit rate : 253 b/s
    Count of elements : 595
    Compression mode : Lossless
    Stream size : 47.9 KiB (0%)
    Title : Full (KBM TeaM)
    Language : Russian
    Default : No
    Forced : No
    Menu
    00: 00: 00.000 : ru: Опенинг
    00: 01: 31.091 : ru: Часть А
    00: 14: 17.857 : ru: Часть Б
    00: 24: 15.079 : ru: Эндинг
    00: 25: 47.546 : ru: Далее

    General
    Unique ID : 144442880933834597174080418831207878521 (0x6CAAAFDCE62D581CF4199AAC367DCF79)
    Complete name : J: АнимеАнгельские Ритмы (Angel Beats) BDRip (2010)3 (SP1). Hell\'s Kitchen (Адская кухня).mkv
    Format : Matroska
    Format version : Version 4
    File size : 2.62 GiB
    Duration : 29 min 48 s
    Overall bit rate mode : Variable
    Overall bit rate : 12.6 Mb/s
    Encoded date : UTC 2020-02-16 16: 30: 30
    Writing application : mkvmerge v43.0.0 (\'The Quartermaster\') 64-bit
    Writing library : libebml v1.3.10 + libmatroska v1.5.2
    Attachments : Calibri (Bold).ttf/Calibri (Regular).ttf/Century (Regular).ttf/Corbel (Bold Italic).ttf/Corbel (Bold).ttf
    Video
    ID : 1
    Format : AVC
    Format/Info : Advanced Video Codec
    Format profile : High 10@L5
    Format settings : CABAC/4 Ref Frames
    Format settings, CABAC : Yes
    Format settings, Reference : 4 frames
    Codec ID : V_MPEG4/ISO/AVC
    Duration : 29 min 48 s
    Bit rate : 11.3 Mb/s
    Width : 1 920 pixels
    Height : 1 080 pixels
    Display aspect ratio : 16: 9
    Frame rate mode : Constant
    Frame rate : 23.976 (24000/1001) FPS
    Color space : YUV
    Chroma subsampling : 4: 2: 0
    Bit depth : 10 bits
    Scan type : Progressive
    Bits/(Pixel*Frame) : 0.228
    Stream size : 2.36 GiB (90%)
    Writing library : x264 core 148 (DJATOM\'s build)
    Encoding settings : cabac=1/ref=4/deblock=1: 1: -1/analyse=0x3: 0x113/me=umh/subme=9/psy=1/fade_compensate=0.00/psy_rd=1.00: 0.00/mixed_ref=1/me_range=32/chroma_me=1/trellis=2/8x8dct=1/cqm=0/deadzone=21, 11/fast_pskip=1/chroma_qp_offset=-2/threads=34/lookahead_threads=5/sliced_threads=0/nr=0/decimate=1/interlaced=0/bluray_compat=0/constrained_intra=0/bframes=9/b_pyramid=2/b_adapt=2/b_bias=0/direct=1/weightb=1/open_gop=0/weightp=2/keyint=250/keyint_min=23/scenecut=40/intra_refresh=0/rc=crf/mbtree=0/crf=15.1000/qcomp=0.72/qpmin=0/qpmax=81/qpstep=4/ip_ratio=1.40/pb_ratio=1.30/aq=1: 0.85
    Language : Japanese
    Default : Yes
    Forced : No
    Color range : Limited
    Color primaries : BT.709
    Transfer characteristics : BT.709
    Matrix coefficients : BT.709
    Audio #1
    ID : 2
    Format : AAC LC
    Format/Info : Advanced Audio Codec Low Complexity
    Codec ID : A_AAC-2
    Duration : 29 min 48 s
    Bit rate : 192 kb/s
    Channel(s) : 2 channels
    Channel layout : L R
    Sampling rate : 48.0 kHz
    Frame rate : 46.875 FPS (1024 SPF)
    Compression mode : Lossy
    Stream size : 41.0 MiB (2%)
    Title : AniDub (Esther Azazel)
    Language : Russian
    Default : Yes
    Forced : No
    Audio #2
    ID : 3
    Format : FLAC
    Format/Info : Free Lossless Audio Codec
    Codec ID : A_FLAC
    Duration : 29 min 48 s
    Bit rate mode : Variable
    Bit rate : 1 075 kb/s
    Channel(s) : 2 channels
    Channel layout : L R
    Sampling rate : 48.0 kHz
    Frame rate : 11.719 FPS (4096 SPF)
    Bit depth : 24 bits
    Detected bit depth : 20 bits
    Compression mode : Lossless
    Stream size : 229 MiB (9%)
    Title : Original
    Writing library : libFLAC 1.2.1 (UTC 2007-09-17)
    Language : Japanese
    Default : No
    Forced : No
    Text #1
    ID : 4
    Format : ASS
    Codec ID : S_TEXT/ASS
    Codec ID/Info : Advanced Sub Station Alpha
    Duration : 25 min 18 s
    Bit rate : 7 b/s
    Count of elements : 12
    Compression mode : Lossless
    Stream size : 1.45 KiB (0%)
    Title : Forced (Seiya aXtr25)
    Language : Russian
    Default : Yes
    Forced : No
    Text #2
    ID : 5
    Format : ASS
    Codec ID : S_TEXT/ASS
    Codec ID/Info : Advanced Sub Station Alpha
    Duration : 27 min 58 s
    Bit rate : 152 b/s
    Count of elements : 457
    Compression mode : Lossless
    Stream size : 31.3 KiB (0%)
    Title : Full (Seiya aXtr25)
    Language : Russian
    Default : No
    Forced : No
    Menu
    00: 00: 00.000 : ru: Часть А
    00: 00: 36.036 : ru: Опенинг
    00: 02: 06.126 : ru: Часть Б
    00: 15: 27.927 : ru: Часть В
    00: 28: 17.696 : ru: Эндинг
    Время раздачи: С 8: 00 по 18: 00 МСК (до появления первых 3-5 скачавших)
    Понравился релиз? Ставь Оценку и нажми Спасибо
    Это серьёзно меня мотивирует делать подобные релизы.



    Онлайн видео Angel Beats!


    Angel Beats! | Ангельские Ритмы! [2010, TV, 13 ep + 3 sp] BDRip 1080p 10-bit raw+rus торрент скачать бесплатно
    Рейтинг →
     (голосов: 1, оценка 4/5, голосовать можно 1 раз )

    Другие торренты по теме:

  • Angel Beats! / Ангельские ритмы! [2010, TV, 13ep + 3sp] BDRip 1080p raw скачать через торрент бесплатно
  • Angel Beats! -1st beat- OST (2015) [FLAC|Lossless] <OP+ED+Singles> скачать через торрент бесплатно


    • Комментарии (0):

      Информация

      Информация

        Посетители, находящиеся в группе Гости, не могут оставлять комментарии в данной новости.

        ↓ Меню




        Популярное

        Роботы-пожарные / Fire Robo (2016) WEB-DLRip [H.264 / 720p-LQ] (сезон 1, серии 1-26 из 26) [Обновляемая]

        (скачиваний: 6)
        Лея Уотерс | Переключение на силу. Как научиться видеть в детях сильные стороны, чтобы помочь им расцвести (2019) [EPUB]

        (скачиваний: 5)
        Жила-была царевна (2015-2019) WEB-DLRip [H.264 / 720p-LQ] (сезон 1, серии 1-18 из 26) [Обновляемая]

        (скачиваний: 5)
        Сергей Матвеев | Полный курс английского языка для лентяев (2016) [PDF]

        (скачиваний: 5)
        Алексей Марков | Хулиганская экономика. Финансовые рынки для хулиганов и их родителей (2019) [EPUB]

        (скачиваний: 4)
        Металионы / Metalions (2018-2019) WEB-DLRip [H.264 / 720p-LQ] (сезон 1, серии 1-52 из 52) [Обновляемая]

        (скачиваний: 4)
        Александр Нилл | Воспитание свободой. Школа Саммерхилл (2020) [EPUB]

        (скачиваний: 4)
        Серия книг | Образовательная манга (2010 - 2015) [PDF]

        (скачиваний: 4)
        Мариэтта Чудакова | Рассказы про Россию. 1861—1922 (2020) [EPUB]

        (скачиваний: 3)
        Gekijouban KanColle | Kantai Collection Movie | Fleet Girls Collection: Movie Sequence| Коллекционная флотилия на большом экране [2016, Movie] BDrip 720p 10bit raw

        (скачиваний: 3)