ВАЖНО! Сайт скоро заблокируют! Подписывайся на наш канал в Telegram https://t.me/torrentok и получи доступ к торрентам без ограничений!
.
Авторизация | Регистрация
bitok.xyz
Торрент скачать бесплатно Мультфильмы торрент скачать Charlotte | Шарлотта [2015, TV, 13 ep + 1 sp] BDRip 1080p 10-bit raw+rus торрент скачать бесплатно


    Charlotte | Шарлотта [2015, TV, 13 ep + 1 sp] BDRip 1080p 10-bit raw+rus торрент скачать бесплатно

    Дата: 17-02-2020, 05:00 | .torrent скачали: 0

    Charlotte | Шарлотта [2015, TV, 13 ep + 1 sp] BDRip 1080p 10-bit raw+rusТип: TV
    Жанр: Комедия, Мистика, Драма
    Продолжительность: 14 Эпизодов по 24 Мин
    Количество серий: 14 Эпизодов
    Дата выпуска: c05.07.2015 по27.09.2015
    Автор оригинала: Маэда Дзюн
    Режиссер: Асай Ёсиюки
    Производство: P.A. Works/ Япония

    World-Art |AniDB |MyAnimelist |Shikimori

    Описание

    Ю Отосака не всегда был эгоистом и обманщиком. Изменения в характере начались в тот момент, когда он неожиданно открыл в себе паранормальную способность, предоставляющую возможность ровно на пять секунд вселяться в чужое тело. Обзаведясь такой полезной силой, юноша удивляться не стал, а, немного пораскинув мозгами, в конце концов нашёл ей нужное применение. В чём бы вы думали? В учёбе.
    Ухитряясь незаметно похищать тела усердных пятерочников, Ю раз за разом списывал на экзаменах. В итоге с отличием закончил среднюю школу и поступил в престижную старшую. Ну а дальше дело оставалось за малым: таким же макаром просочиться в лучший университет и тем самым устроить себе и младшей сестрёнке благополучное будущее.
    Со временем все вокруг стали казаться идиотами, что только укрепляло амбицию парня, твёрдо уверенного в своей уникальности. Уникальности, насчёт которой кое-кому однажды захотелось поспорить... И вот хитрая Нао Томори, в прямом смысле появившаяся словно из ниоткуда, не без злорадства сбила спесь с самодовольного трюкача, стоило ей только сказать, что такие, как он, на этом свете вовсе не редкость.
    Автор: Joseph ©Shikimori
    Качество Видео: BDRip,
    Видео: AVC/x264 , 1920x1080, 23.976 fps, 6 588 kb/s, 0.133 bpp10-bit
    Язык Озвучки: Японский и Русский
    Озвучка: Двухголосая, Многоголосая закадровая
    TV
    Аудио №1: AC32.0 , 48.0 kHz, 192 kb/s(Shiza Project) |Язык:
    Аудио №2: AAC2.0 , 48.0 kHz, 161 kb/s(AniDub) |Язык:
    Аудио №3: AAC2.0 , 48.0 kHz, 192 kb/s(AniLibria) |Язык:
    Аудио №4: AC32.0 , 48.0 kHz, 192 kb/s(Onibaku) |Язык:
    Аудио №5: FLAC2.0 , 48.0 kHz, 657 kb/s 16-Bit(Original) |Язык:
    Special
    Аудио №1: AC32.0 , 48.0 kHz, 192 kb/s(Shiza Project) |Язык:
    Аудио №2: AAC2.0 , 48.0 kHz, 162 kb/s(AniDub) |Язык:
    Аудио №3: AC32.0 , 48.0 kHz, 192 kb/s(Onibaku) |Язык:
    Аудио №4: FLAC2.0 , 48.0 kHz, 652 kb/s 16-Bit(Original) |Язык:
    Субтитры: Надписи/Полные(Русский)

    Скриншоты для ознакомления





    01. I Think About Others (Мысли о других)
    02. Melody of Despair (Симфония отчаяния)
    03. Love and Flame (Любовь и пламя)
    04. Moment of Earnest (Момент истины)
    04.5. Strong People (Сильные люди)
    05. The Sound You Heard Sometime (Такой знакомый звук)
    06. Happy You Did Not Notice (Упущенное счастье)
    07. The End of the Exodus (Дорога без возврата)
    08. Encounter (Встреча)
    09. The World Is Not in Here (Другой мир)
    10. Looting (Дар похищения)
    11. Charlotte (Шарлотта)
    12. Promise (Клятва)
    13. Memories to Come (С чистого листа)

    General
    Unique ID : 326291827144983197811297240676558460009 (0xF57985220B81D3257D662C6C1CFC5469)
    Complete name : J: АнимеШарлотта (Charlotte) BDRip (2015)1. I Think About Others (Мысли о других).mkv
    Format : Matroska
    Format version : Version 4
    File size : 1.42 GiB
    Duration : 25 min 32 s
    Overall bit rate mode : Variable
    Overall bit rate : 7 985 kb/s
    Encoded date : UTC 2019-07-09 07: 23: 46
    Writing application : mkvmerge v35.0.0 (\'All The Love In The World\') 64-bit
    Writing library : libebml v1.3.9 + libmatroska v1.5.2
    Video
    ID : 1
    Format : AVC
    Format/Info : Advanced Video Codec
    Format profile : High 10@L5
    Format settings : CABAC/4 Ref Frames
    Format settings, CABAC : Yes
    Format settings, Reference : 4 frames
    Codec ID : V_MPEG4/ISO/AVC
    Duration : 25 min 32 s
    Bit rate : 6 588 kb/s
    Width : 1 920 pixels
    Height : 1 080 pixels
    Display aspect ratio : 16: 9
    Frame rate mode : Constant
    Frame rate : 23.976 (24000/1001) FPS
    Color space : YUV
    Chroma subsampling : 4: 2: 0
    Bit depth : 10 bits
    Scan type : Progressive
    Bits/(Pixel*Frame) : 0.133
    Stream size : 1.18 GiB (83%)
    Title : Charlotte ep.01 I Think About Others
    Writing library : x264 core 148 r2665 a01e339
    Encoding settings : cabac=1/ref=4/deblock=1: -2: -2/analyse=0x3: 0x133/me=umh/subme=9/psy=1/psy_rd=1.00: 0.00/mixed_ref=1/me_range=32/chroma_me=1/trellis=2/8x8dct=1/cqm=0/deadzone=21, 11/fast_pskip=1/chroma_qp_offset=-2/threads=12/lookahead_threads=1/sliced_threads=0/nr=0/decimate=1/interlaced=0/bluray_compat=0/constrained_intra=0/bframes=6/b_pyramid=2/b_adapt=2/b_bias=0/direct=1/weightb=1/open_gop=0/weightp=2/keyint=250/keyint_min=23/scenecut=40/intra_refresh=0/rc=crf/mbtree=0/crf=16.0/qcomp=0.72/qpmin=0/qpmax=81/qpstep=4/ip_ratio=1.40/pb_ratio=1.30/aq=1: 0.90
    Language : Japanese
    Default : Yes
    Forced : No
    Color range : Limited
    Color primaries : BT.709
    Transfer characteristics : BT.709
    Matrix coefficients : BT.709
    Audio #1
    ID : 2
    Format : AC-3
    Format/Info : Audio Coding 3
    Commercial name : Dolby Digital
    Codec ID : A_AC3
    Duration : 25 min 32 s
    Bit rate mode : Constant
    Bit rate : 192 kb/s
    Channel(s) : 2 channels
    Channel layout : L R
    Sampling rate : 48.0 kHz
    Frame rate : 31.250 FPS (1536 SPF)
    Compression mode : Lossy
    Stream size : 35.1 MiB (2%)
    Title : GreyMoon, Snowly, Aska, NesTea (SHIZA)
    Language : Russian
    Service kind : Complete Main
    Default : Yes
    Forced : No
    Audio #2
    ID : 3
    Format : AAC LC
    Format/Info : Advanced Audio Codec Low Complexity
    Codec ID : A_AAC-2
    Duration : 25 min 32 s
    Bit rate : 161 kb/s
    Channel(s) : 2 channels
    Channel layout : L R
    Sampling rate : 48.0 kHz
    Frame rate : 46.875 FPS (1024 SPF)
    Compression mode : Lossy
    Delay relative to video : 9 ms
    Stream size : 29.5 MiB (2%)
    Title : BalFor Oriko (AniDub)
    Language : Russian
    Default : No
    Forced : No
    Audio #3
    ID : 4
    Format : AAC LC
    Format/Info : Advanced Audio Codec Low Complexity
    Codec ID : A_AAC-2
    Duration : 25 min 32 s
    Bit rate : 192 kb/s
    Channel(s) : 2 channels
    Channel layout : L R
    Sampling rate : 48.0 kHz
    Frame rate : 46.875 FPS (1024 SPF)
    Compression mode : Lossy
    Stream size : 34.6 MiB (2%)
    Title : Lupin, Itashi (AniLibria)
    Language : Russian
    Default : No
    Forced : No
    Audio #4
    ID : 5
    Format : AC-3
    Format/Info : Audio Coding 3
    Commercial name : Dolby Digital
    Codec ID : A_AC3
    Duration : 25 min 32 s
    Bit rate mode : Constant
    Bit rate : 192 kb/s
    Channel(s) : 2 channels
    Channel layout : L R
    Sampling rate : 48.0 kHz
    Frame rate : 31.250 FPS (1536 SPF)
    Compression mode : Lossy
    Stream size : 35.1 MiB (2%)
    Title : Zendos Ruri (Onibaku)
    Language : Russian
    Service kind : Complete Main
    Default : No
    Forced : No
    Audio #5
    ID : 6
    Format : FLAC
    Format/Info : Free Lossless Audio Codec
    Codec ID : A_FLAC
    Duration : 25 min 32 s
    Bit rate mode : Variable
    Bit rate : 657 kb/s
    Channel(s) : 2 channels
    Channel layout : L R
    Sampling rate : 48.0 kHz
    Frame rate : 11.719 FPS (4096 SPF)
    Bit depth : 16 bits
    Compression mode : Lossless
    Stream size : 120 MiB (8%)
    Title : Original
    Writing library : libFLAC 1.3.1 (UTC 2014-11-25)
    Language : Japanese
    Default : No
    Forced : No
    Text #1
    ID : 7
    Format : ASS
    Codec ID : S_TEXT/ASS
    Codec ID/Info : Advanced Sub Station Alpha
    Duration : 15 min 32 s
    Bit rate : 745 b/s
    Count of elements : 482
    Compression mode : Lossless
    Stream size : 84.9 KiB (0%)
    Title : Forced
    Language : Russian
    Default : Yes
    Forced : No
    Text #2
    ID : 8
    Format : ASS
    Codec ID : S_TEXT/ASS
    Codec ID/Info : Advanced Sub Station Alpha
    Duration : 23 min 39 s
    Bit rate : 641 b/s
    Count of elements : 810
    Compression mode : Lossless
    Stream size : 111 KiB (0%)
    Title : Full
    Language : Russian
    Default : No
    Forced : No
    Menu
    00: 00: 00.000 : : avant
    00: 00: 53.052 : : part A
    00: 11: 51.043 : : part B
    00: 24: 01.064 : : ED

    General
    Unique ID : 216293156986597780329529208855599074338 (0xA2B88BF9D12221224E4E97D9EDFD4C22)
    Complete name : J: АнимеШарлотта (Charlotte) BDRip (2015)4.5. Strong People (Сильные люди).mkv
    Format : Matroska
    Format version : Version 4
    File size : 1.40 GiB
    Duration : 24 min 11 s
    Overall bit rate mode : Variable
    Overall bit rate : 8 267 kb/s
    Encoded date : UTC 2019-07-09 06: 55: 07
    Writing application : mkvmerge v35.0.0 (\'All The Love In The World\') 64-bit
    Writing library : libebml v1.3.9 + libmatroska v1.5.2
    Video
    ID : 1
    Format : AVC
    Format/Info : Advanced Video Codec
    Format profile : High 10@L5
    Format settings : CABAC/4 Ref Frames
    Format settings, CABAC : Yes
    Format settings, Reference : 4 frames
    Codec ID : V_MPEG4/ISO/AVC
    Duration : 24 min 6 s
    Bit rate : 7 092 kb/s
    Width : 1 920 pixels
    Height : 1 080 pixels
    Display aspect ratio : 16: 9
    Frame rate mode : Constant
    Frame rate : 23.976 (24000/1001) FPS
    Color space : YUV
    Chroma subsampling : 4: 2: 0
    Bit depth : 10 bits
    Scan type : Progressive
    Bits/(Pixel*Frame) : 0.143
    Stream size : 1.19 GiB (86%)
    Title : Charlotte Special
    Writing library : x264 core 148 r2665 a01e339
    Encoding settings : cabac=1/ref=4/deblock=1: -2: -2/analyse=0x3: 0x133/me=umh/subme=9/psy=1/psy_rd=1.00: 0.00/mixed_ref=1/me_range=32/chroma_me=1/trellis=2/8x8dct=1/cqm=0/deadzone=21, 11/fast_pskip=1/chroma_qp_offset=-2/threads=12/lookahead_threads=1/sliced_threads=0/nr=0/decimate=1/interlaced=0/bluray_compat=0/constrained_intra=0/bframes=6/b_pyramid=2/b_adapt=2/b_bias=0/direct=1/weightb=1/open_gop=0/weightp=2/keyint=250/keyint_min=23/scenecut=40/intra_refresh=0/rc=crf/mbtree=0/crf=16.0/qcomp=0.72/qpmin=0/qpmax=81/qpstep=4/ip_ratio=1.40/pb_ratio=1.30/aq=1: 0.90
    Language : Japanese
    Default : Yes
    Forced : No
    Color range : Limited
    Color primaries : BT.709
    Transfer characteristics : BT.709
    Matrix coefficients : BT.709
    Audio #1
    ID : 2
    Format : AC-3
    Format/Info : Audio Coding 3
    Commercial name : Dolby Digital
    Codec ID : A_AC3
    Duration : 24 min 6 s
    Bit rate mode : Constant
    Bit rate : 192 kb/s
    Channel(s) : 2 channels
    Channel layout : L R
    Sampling rate : 48.0 kHz
    Frame rate : 31.250 FPS (1536 SPF)
    Compression mode : Lossy
    Stream size : 33.1 MiB (2%)
    Title : Snowly, GreyMoon, Лизавета, Tomoko (SHIZA)
    Language : Russian
    Service kind : Complete Main
    Default : Yes
    Forced : No
    Audio #2
    ID : 3
    Format : AAC LC
    Format/Info : Advanced Audio Codec Low Complexity
    Codec ID : A_AAC-2
    Duration : 24 min 11 s
    Bit rate : 162 kb/s
    Channel(s) : 2 channels
    Channel layout : L R
    Sampling rate : 48.0 kHz
    Frame rate : 46.875 FPS (1024 SPF)
    Compression mode : Lossy
    Delay relative to video : 9 ms
    Stream size : 27.9 MiB (2%)
    Title : BalFor Oriko (AniDub)
    Language : Russian
    Default : No
    Forced : No
    Audio #3
    ID : 4
    Format : AC-3
    Format/Info : Audio Coding 3
    Commercial name : Dolby Digital
    Codec ID : A_AC3
    Duration : 24 min 6 s
    Bit rate mode : Constant
    Bit rate : 192 kb/s
    Channel(s) : 2 channels
    Channel layout : L R
    Sampling rate : 48.0 kHz
    Frame rate : 31.250 FPS (1536 SPF)
    Compression mode : Lossy
    Stream size : 33.1 MiB (2%)
    Title : Zendos Ruri (Onibaku)
    Language : Russian
    Service kind : Complete Main
    Default : No
    Forced : No
    Audio #4
    ID : 5
    Format : FLAC
    Format/Info : Free Lossless Audio Codec
    Codec ID : A_FLAC
    Duration : 24 min 6 s
    Bit rate mode : Variable
    Bit rate : 652 kb/s
    Channel(s) : 2 channels
    Channel layout : L R
    Sampling rate : 48.0 kHz
    Frame rate : 11.719 FPS (4096 SPF)
    Bit depth : 16 bits
    Compression mode : Lossless
    Stream size : 112 MiB (8%)
    Title : Original
    Writing library : libFLAC 1.3.1 (UTC 2014-11-25)
    Language : Japanese
    Default : No
    Forced : No
    Text #1
    ID : 6
    Format : ASS
    Codec ID : S_TEXT/ASS
    Codec ID/Info : Advanced Sub Station Alpha
    Duration : 14 min 9 s
    Bit rate : 33 b/s
    Count of elements : 22
    Compression mode : Lossless
    Stream size : 3.43 KiB (0%)
    Title : Forced
    Language : Russian
    Default : Yes
    Forced : No
    Text #2
    ID : 7
    Format : ASS
    Codec ID : S_TEXT/ASS
    Codec ID/Info : Advanced Sub Station Alpha
    Duration : 22 min 22 s
    Bit rate : 193 b/s
    Count of elements : 502
    Compression mode : Lossless
    Stream size : 31.7 KiB (0%)
    Title : Full
    Language : Russian
    Default : No
    Forced : No
    Menu
    00: 00: 00.000 : : avant
    00: 00: 33.033 : : OP
    00: 02: 03.122 : : part A
    00: 15: 43.943 : : part B
    00: 22: 35.354 : : ED
    Время раздачи: С 8: 00 по 18: 00 МСК (до появления первых 3-5 скачавших)
    Понравился релиз? Ставь Оценку и нажми Спасибо
    Это серьёзно меня мотивирует делать подобные релизы.

    За ретайминг звука и субтитров огромное спасибо DS2902
    Полный список ретаймов


    Онлайн видео Charlotte


    Charlotte | Шарлотта [2015, TV, 13 ep + 1 sp] BDRip 1080p 10-bit raw+rus торрент скачать бесплатно
    Рейтинг →
     (голосов: 1, оценка 3/5, голосовать можно 1 раз )

    Другие торренты по теме:

  • Charlotte | Шарлотта [2015, TV, 1 из 12] WEB-DL 720p raw скачать через торрент бесплатно
  • Charlotte / Шарлотта [2015, TV, 01 из 13] HDTVRip 720p raw+rus скачать через торрент бесплатно
  • Charlotte / Шарлотта [2015, TV, 02 из 13] BDRip Hi10p 1080p raw скачать через торрент бесплатно
  • Charlotte / Шарлотта [2015, TV, 2 из 13] BDRemux 1080p raw скачать через торрент бесплатно
  • Charlotte / Шарлотта [2015, TV, 02 из 13] BDRip 720p raw+rus(ext) скачать через торрент бесплатно
  • Charlotte | Шарлотта [2015, TV, 14 эп.] BDrip 1080p raw
  • Тише... тише, милая Шарлотта / Hush...Hush, Sweet Charlotte (1964) DVDRip скачать через торрент бесплатно
  • Шарлотта Бронте / Charlotte Bronte | Джейн Эйр / Jane Eyre (2016) [FB2, EPUB]


    • Комментарии (0):

      Информация

      Информация

        Посетители, находящиеся в группе Гости, не могут оставлять комментарии в данной новости.

        ↓ Меню




        Популярное

        Роботы-пожарные / Fire Robo (2016) WEB-DLRip [H.264 / 720p-LQ] (сезон 1, серии 1-26 из 26) [Обновляемая]

        (скачиваний: 5)
        Сергей Матвеев | Полный курс английского языка для лентяев (2016) [PDF]

        (скачиваний: 4)
        Жила-была царевна (2015-2019) WEB-DLRip [H.264 / 720p-LQ] (сезон 1, серии 1-18 из 26) [Обновляемая]

        (скачиваний: 3)
        Gekijouban KanColle | Kantai Collection Movie | Fleet Girls Collection: Movie Sequence| Коллекционная флотилия на большом экране [2016, Movie] BDrip 720p 10bit raw

        (скачиваний: 3)
        Роберт Кийосаки | Богатый папа, бедный папа для подростков (2014) [PDF, FB2]

        (скачиваний: 3)
        Серия книг | Образовательная манга (2010 - 2015) [PDF]

        (скачиваний: 3)
        Анна Зайцева, Анастасия Дубасова | Чудесный пластилин: лепим вместе с детьми (2011) [PDF]

        (скачиваний: 2)
        Королевская академия / Regal Academy (2016) SATRip [H.264] (Сезон 1, 26 серий из 26) [UKR]

        (скачиваний: 2)
        Свинка Пеппа / Peppa Pig (2004-2012) SATRip (1-4 сезоны: 208 серий из 209) скачать через торрент бесплатно

        (скачиваний: 2)
        Металионы / Metalions (2018-2019) WEB-DLRip [H.264 / 720p-LQ] (сезон 1, серии 1-52 из 52) [Обновляемая]

        (скачиваний: 2)