ВАЖНО! Сайт скоро заблокируют! Подписывайся на наш канал в Telegram https://t.me/torrentok и получи доступ к торрентам без ограничений!
.
Авторизация | Регистрация
bitok.xyz
Торрент скачать бесплатно Мультфильмы торрент скачать Gekijouban Soushuuhen Overlord | Overlord: Fushisha no Ou & Shikkoku no Eiyuu | Повелитель: Бессмертный Король & Тёмный Воин [2017, Movie] BDRip 1080p raw+rus торрент скачать бесплатно


    Gekijouban Soushuuhen Overlord | Overlord: Fushisha no Ou & Shikkoku no Eiyuu | Повелитель: Бессмертный Король & Тёмный Воин [2017, Movie] BDRip 1080p raw+rus торрент скачать бесплатно

    Дата: 17-02-2020, 05:00 | .torrent скачали: 0

    Gekijouban Soushuuhen Overlord | Overlord: Fushisha no Ou & Shikkoku no Eiyuu | Повелитель: Бессмертный Король & Тёмный Воин [2017, Movie] BDRip 1080p raw+rusТип: Movie
    Жанр: Приключения, Фэнтези, Сверхъестественное, Экше
    Продолжительность: 1-ый Эпизод 01: 42: 21; 2-ой Эпизод 01: 33: 34
    Количество серий: 2 Эпизода
    Дата выпуска: c25.02.2017 по11.03.2017
    Автор оригинала: Маруяма Куганэ
    Режиссер: Ито Наоюки
    Производство: Madhouse Studios/ Япония

    World-Art |AniDB |MyAnimelist |Shikimori

    Описание

    Бежать из тягостной повседневности, покорить дивный новый мир, стать неуязвимым и бессмертным суперменом – такова мечта пресловутого офисного планктона. Типичный его представитель, сражавшийся в недалеком будущем в виртуальную РПГ Иггдрасиль под ником Момонга, не захотел покидать закрывающуюся игру. Зачем же уходить из обжитой иллюзии, если можно даром получить целый мир для себя, любимого?!
    Фильм компиляция из двух частей, пересказывающих события первого сезон любимого сериалааOverlord
    Качество Видео: BDRip
    Fushisha no Ou
    Видео: AVC/x264 , 1920x1080, 23.976 fps, 8 177 kb/s, 0.164 bpp8-bit
    Shikkoku no Eiyuu
    Видео: AVC/x264 , 1920x1080, 23.976 fps, 8 069 kb/s, 0.162 bpp8-bit
    Язык Озвучки: Японский и Русский
    Озвучка: Многоголосая закадровая
    Fushisha no Ou
    Аудио №1: Opus2.0 , 48.0 kHz, 124 kb/s(Akari Group) |Язык:
    Аудио №2: FLAC2.0 , 48.0 kHz, 659 kb/s 16-Bit(Original) |Язык:
    Shikkoku no Eiyuu
    Аудио №1: Opus2.0 , 48.0 kHz, 121 kb/s(Akari Group) |Язык:
    Аудио №2: FLAC2.0 , 48.0 kHz, 701 kb/s 16-Bit(Original) |Язык:
    *Akari Group- Добавляй в закладки Telegram канал!
    Субтитры: Полные(Русский)

    Скриншоты для ознакомления





    Overlord (Movie 1) Fushisha no Ou (Бессмертный Король)
    Overlord (Movie 2) Shikkoku no Eiyuu (Тёмный Воин)
    Overlord I(TV)
    Overlord(Movie) (Эта раздача)
    Overlord II(TV)
    Overlord III(TV)
    Overlord Specials(SP)
    General
    Unique ID : 233184901212275637865905746340071766932 (0xAF6DC74411276863F3D779CA389A7B94)
    Complete name : J: АнимеПовелитель (Overlord) BDRip (2015-2018)MovieOverlord (Movie 1) Fushisha no Ou (Бессмертный Король).mkv
    Format : Matroska
    Format version : Version 4
    File size : 6.41 GiB
    Duration : 1 h 42 min
    Overall bit rate mode : Variable
    Overall bit rate : 8 963 kb/s
    Encoded date : UTC 2020-02-16 14: 26: 53
    Writing application : mkvmerge v43.0.0 (\'The Quartermaster\') 64-bit
    Writing library : libebml v1.3.10 + libmatroska v1.5.2
    Cover : Yes
    Attachments : cover.jpg/Parisian.ttf
    Video
    ID : 1
    Format : AVC
    Format/Info : Advanced Video Codec
    Format profile : High@L4
    Format settings : CABAC/4 Ref Frames
    Format settings, CABAC : Yes
    Format settings, Reference : 4 frames
    Codec ID : V_MPEG4/ISO/AVC
    Duration : 1 h 42 min
    Bit rate : 8 177 kb/s
    Width : 1 920 pixels
    Height : 1 080 pixels
    Display aspect ratio : 16: 9
    Frame rate mode : Constant
    Frame rate : 23.976 (24000/1001) FPS
    Color space : YUV
    Chroma subsampling : 4: 2: 0
    Bit depth : 8 bits
    Scan type : Progressive
    Bits/(Pixel*Frame) : 0.164
    Stream size : 5.85 GiB (91%)
    Writing library : x264 core 152
    Encoding settings : opencl=1/cabac=1/ref=4/deblock=1: -2: -2/analyse=0x3: 0x113/me=umh/subme=9/psy=1/psy_rd=0.70: 0.00/mixed_ref=0/me_range=32/chroma_me=1/trellis=2/8x8dct=1/cqm=0/deadzone=21, 11/fast_pskip=1/chroma_qp_offset=-2/threads=8/lookahead_threads=1/sliced_threads=0/nr=0/decimate=1/interlaced=0/bluray_compat=0/constrained_intra=0/bframes=9/b_pyramid=2/b_adapt=2/b_bias=0/direct=3/weightb=1/open_gop=0/weightp=2/keyint=250/keyint_min=23/scenecut=40/intra_refresh=0/rc_lookahead=40/rc=crf/mbtree=1/crf=16.0/qcomp=0.70/qpmin=10/qpmax=20/qpstep=4/ip_ratio=1.40/aq=1: 1.00
    Language : Japanese
    Default : Yes
    Forced : No
    Audio #1
    ID : 2
    Format : Opus
    Codec ID : A_OPUS
    Duration : 1 h 42 min
    Bit rate : 124 kb/s
    Channel(s) : 2 channels
    Channel layout : L R
    Sampling rate : 48.0 kHz
    Frame rate : 50.000 FPS (960 SPF)
    Compression mode : Lossy
    Stream size : 90.7 MiB (1%)
    Title : Akari Group (AlexeyONLY Megera Royz SteycheR)
    Writing library : opusenc from opus-tools 0.2-3-gf5f571b
    Language : Russian
    Default : Yes
    Forced : No
    ENCODER_OPTIONS : --vbr --bitrate 132
    Audio #2
    ID : 3
    Format : FLAC
    Format/Info : Free Lossless Audio Codec
    Codec ID : A_FLAC
    Duration : 1 h 42 min
    Bit rate mode : Variable
    Bit rate : 659 kb/s
    Channel(s) : 2 channels
    Channel layout : L R
    Sampling rate : 48.0 kHz
    Frame rate : 10.417 FPS (4608 SPF)
    Bit depth : 16 bits
    Compression mode : Lossless
    Stream size : 482 MiB (7%)
    Title : Original
    Writing library : Lavf57.71.100
    Language : Japanese
    Default : No
    Forced : No
    Text
    ID : 4
    Format : ASS
    Codec ID : S_TEXT/ASS
    Codec ID/Info : Advanced Sub Station Alpha
    Duration : 1 h 38 min
    Bit rate : 149 b/s
    Count of elements : 1415
    Compression mode : Lossless
    Stream size : 107 KiB (0%)
    Title : Full
    Language : Russian
    Default : No
    Forced : No

    General
    Unique ID : 108355743825587289767756131296288482797 (0x51848EA28FF83D9CF6F2E7B0D110A5ED)
    Complete name : J: АнимеПовелитель (Overlord) BDRip (2015-2018)MovieOverlord (Movie 2) Shikkoku no Eiyuu (Тёиный Воин).mkv
    Format : Matroska
    Format version : Version 4
    File size : 5.81 GiB
    Duration : 1 h 33 min
    Overall bit rate mode : Variable
    Overall bit rate : 8 895 kb/s
    Encoded date : UTC 2020-02-16 14: 20: 45
    Writing application : mkvmerge v43.0.0 (\'The Quartermaster\') 64-bit
    Writing library : libebml v1.3.10 + libmatroska v1.5.2
    Cover : Yes
    Attachments : cover.jpg
    Video
    ID : 1
    Format : AVC
    Format/Info : Advanced Video Codec
    Format profile : High@L4
    Format settings : CABAC/4 Ref Frames
    Format settings, CABAC : Yes
    Format settings, Reference : 4 frames
    Codec ID : V_MPEG4/ISO/AVC
    Duration : 1 h 33 min
    Bit rate : 8 069 kb/s
    Width : 1 920 pixels
    Height : 1 080 pixels
    Display aspect ratio : 16: 9
    Frame rate mode : Constant
    Frame rate : 23.976 (24000/1001) FPS
    Color space : YUV
    Chroma subsampling : 4: 2: 0
    Bit depth : 8 bits
    Scan type : Progressive
    Bits/(Pixel*Frame) : 0.162
    Stream size : 5.27 GiB (91%)
    Writing library : x264 core 152
    Encoding settings : opencl=1/cabac=1/ref=4/deblock=1: -2: -2/analyse=0x3: 0x113/me=umh/subme=9/psy=1/psy_rd=0.70: 0.00/mixed_ref=0/me_range=32/chroma_me=1/trellis=2/8x8dct=1/cqm=0/deadzone=21, 11/fast_pskip=1/chroma_qp_offset=-2/threads=8/lookahead_threads=1/sliced_threads=0/nr=0/decimate=1/interlaced=0/bluray_compat=0/constrained_intra=0/bframes=9/b_pyramid=2/b_adapt=2/b_bias=0/direct=3/weightb=1/open_gop=0/weightp=2/keyint=250/keyint_min=23/scenecut=40/intra_refresh=0/rc_lookahead=40/rc=crf/mbtree=1/crf=16.0/qcomp=0.70/qpmin=10/qpmax=20/qpstep=4/ip_ratio=1.40/aq=1: 1.00
    Language : Japanese
    Default : Yes
    Forced : No
    Audio #1
    ID : 2
    Format : Opus
    Codec ID : A_OPUS
    Duration : 1 h 33 min
    Bit rate : 121 kb/s
    Channel(s) : 2 channels
    Channel layout : L R
    Sampling rate : 48.0 kHz
    Frame rate : 50.000 FPS (960 SPF)
    Compression mode : Lossy
    Stream size : 80.8 MiB (1%)
    Title : Akari Group (AlexeyONLY Megera Royz SteycheR)
    Writing library : opusenc from opus-tools 0.2-3-gf5f571b
    Language : Russian
    Default : Yes
    Forced : No
    ENCODER_OPTIONS : --vbr --bitrate 132
    Audio #2
    ID : 3
    Format : FLAC
    Format/Info : Free Lossless Audio Codec
    Codec ID : A_FLAC
    Duration : 1 h 33 min
    Bit rate mode : Variable
    Bit rate : 701 kb/s
    Channel(s) : 2 channels
    Channel layout : L R
    Sampling rate : 48.0 kHz
    Frame rate : 10.417 FPS (4608 SPF)
    Bit depth : 16 bits
    Compression mode : Lossless
    Stream size : 469 MiB (8%)
    Title : Original
    Writing library : Lavf57.71.100
    Language : Japanese
    Default : No
    Forced : No
    Text
    ID : 4
    Format : ASS
    Codec ID : S_TEXT/ASS
    Codec ID/Info : Advanced Sub Station Alpha
    Duration : 1 h 30 min
    Bit rate : 158 b/s
    Count of elements : 1282
    Compression mode : Lossless
    Stream size : 105 KiB (0%)
    Title : Full
    Language : Russian
    Default : No
    Forced : No
    Время раздачи: С 8: 00 по 18: 00 МСК (до появления первых 3-5 скачавших)
    Понравился релиз? Ставь Оценку и нажми Спасибо
    Это серьёзно меня мотивирует делать подобные релизы.
    Если всем сердцем любишь аниме - подключайся и оставайся на раздаче максимально долго!
    За ретайминг звука и субтитров огромное спасибо DS2902
    Полный список ретаймов


    Онлайн видео Gekijouban Soushuuhen Overlord


    Gekijouban Soushuuhen Overlord | Overlord: Fushisha no Ou & Shikkoku no Eiyuu | Повелитель: Бессмертный Король & Тёмный Воин [2017, Movie] BDRip 1080p raw+rus торрент скачать бесплатно
    Рейтинг →
     (голосов: 1, оценка 5/5, голосовать можно 1 раз )

    Другие торренты по теме:

  • Gekijouban Soushuuhen Overlord | Повелитель (компиляция ТВ-сериала) [2017, Movie, 2 эп.] BD-rip 1080p raw
  • Gekijouban Soushuuhen Made in Abyss | Созданный в Бездне (компиляция) [2019, Movie, 02 из 02] WEB-DL 1080p rus


    • Комментарии (0):

      Информация

      Информация

        Посетители, находящиеся в группе Гости, не могут оставлять комментарии в данной новости.

        ↓ Меню




        Популярное

        Роботы-пожарные / Fire Robo (2016) WEB-DLRip [H.264 / 720p-LQ] (сезон 1, серии 1-26 из 26) [Обновляемая]

        (скачиваний: 6)
        Сергей Матвеев | Полный курс английского языка для лентяев (2016) [PDF]

        (скачиваний: 5)
        Серия книг | Образовательная манга (2010 - 2015) [PDF]

        (скачиваний: 4)
        Жила-была царевна (2015-2019) WEB-DLRip [H.264 / 720p-LQ] (сезон 1, серии 1-18 из 26) [Обновляемая]

        (скачиваний: 3)
        Алена Зюрикова | Дзен в декрете, или Как не сойти с ума от счастья. Режим, сон, воспитание и хорошее настроение (2020) [EPUB]

        (скачиваний: 3)
        Лея Уотерс | Переключение на силу. Как научиться видеть в детях сильные стороны, чтобы помочь им расцвести (2019) [EPUB]

        (скачиваний: 3)
        Александр Нилл | Воспитание свободой. Школа Саммерхилл (2020) [EPUB]

        (скачиваний: 3)
        Алексей Марков | Хулиганская экономика. Финансовые рынки для хулиганов и их родителей (2019) [EPUB]

        (скачиваний: 3)
        Gekijouban KanColle | Kantai Collection Movie | Fleet Girls Collection: Movie Sequence| Коллекционная флотилия на большом экране [2016, Movie] BDrip 720p 10bit raw

        (скачиваний: 3)
        Роберт Кийосаки | Богатый папа, бедный папа для подростков (2014) [PDF, FB2]

        (скачиваний: 3)