ВАЖНО! Сайт скоро заблокируют! Подписывайся на наш канал в Telegram https://t.me/torrentok и получи доступ к торрентам без ограничений!
.
Авторизация | Регистрация
bitok.xyz
Торрент скачать бесплатно Мультфильмы торрент скачать Shigatsu wa Kimi no Uso | Your Lie in April | Твоя Апрельская Ложь [2014, TV, 22 ep + OVA] BDRip 1080p 10-bit raw+rus торрент скачать бесплатно


    Shigatsu wa Kimi no Uso | Your Lie in April | Твоя Апрельская Ложь [2014, TV, 22 ep + OVA] BDRip 1080p 10-bit raw+rus торрент скачать бесплатно

    Дата: 17-02-2020, 05:00 | .torrent скачали: 1

    Shigatsu wa Kimi no Uso | Your Lie in April | Твоя Апрельская Ложь [2014, TV, 22 ep + OVA] BDRip 1080p 10-bit raw+rusТип: TV
    Жанр: Комедия, Романтика, Драма, Музыкальный
    Продолжительность: 13 Эпизодов по 23 Мин
    Количество серий: 13 Эпизодов
    Дата выпуска: c10.10.2014 по20.03.2015
    Автор оригинала: Аракава Наоси
    Режиссер: Исигуро Кёхэй
    Производство: A-1 Pictures/ Япония

    World-Art |AniDB |MyAnimelist |Shikimori

    Описание

    Косэй Арима — мальчик, профессионально играющий на фортепиано, — выигрывал все детские конкурсы, его имя было известно всем начинающим музыкантам. Мать Косэя была его учителем. После того, как она неожиданно скончалась, у Косэя случился нервный срыв во время выступления, в результате чего он больше не мог слышать своей музыки, несмотря на прекрасный слух и большой талант.
    Спустя несколько лет Косэй всё ещё не притрагивался к пианино; мир кажется ему серым и монотонным. Он рад, что у него ещё остались хорошие друзья такие, как Цубаки Савабэ и Рёта Ватари.
    В один прекрасный день он встречает девушку по имени Каори, талантливую и свободную духом скрипачку, чей стиль игры отражает её личность и душу. Каори хочет помочь Косэю вернуться в музыкальный мир и снова услышать музыку...
    Автор: Happy Man ©Shikimori
    Качество Видео: BDRip
    TV
    Видео: AVC/x264 , 1920x1080, 23.976 fps, 9 129 kb/s, 0.184 bpp10-bit
    OVA
    Видео: AVC/x264 , 1280x720, 23.976 fps, 1 249 kb/s, 0.057 bpp10-bit
    Язык Озвучки: Японский и Русский
    Озвучка: Двухголосая, Многоголосая закадровая
    TV
    Аудио №1: AAC2.0 , 48.0 kHz, 192 kb/s(Kansai Studio) |Язык:
    Аудио №2: AAC2.0 , 48.0 kHz, 192 kb/s(AniLibria) |Язык:
    Аудио №3: AC32.0 , 48.0 kHz, 192 kb/s(AniDub) |Язык:
    Аудио №4: AC32.0 , 48.0 kHz, 192 kb/s(Shiza Project) |Язык:
    Аудио №5: AC32.0 , 48.0 kHz, 192 kb/s(AniFilm) |Язык:
    Аудио №6: FLAC2.0 , 48.0 kHz, 1 402 kb/s 24-Bit(Original) |Язык:
    OVA
    Аудио №1: AC32.0 , 48.0 kHz, 186 kb/s(AniDub) |Язык:
    Аудио №2: AC32.0 , 48.0 kHz, 93.4 kb/s(Anilibria) |Язык:
    Аудио №3: FLAC2.0 , 48.0 kHz, 660 kb/s 16-Bit(Original) |Язык:
    Субтитры: Надписи/Полные(Русский)

    Скриншоты для ознакомления





    01. Monotone. Colorful (Чёрно-белый. Яркий)
    02. Friend A (Друг номер один)
    03. Inside Spring (Где всегда весна)
    04. Departure (Начало пути)
    05. Gray Skies (Пасмурное небо)
    06. On the Way Home (По дороге домой)
    07. The Shadows Whisper (Шёпот теней)
    08. Let It Ring (Долети)
    09. Resonance (Резонанс)
    10. The Scenery I Shared with You (Я поделюсь этим с тобой)
    11. Light of Life (Жизни огонёк)
    12. Twinkle Little Star (Twinkle Little Star)
    13. Love s Sadness (Муки любви)
    14. Footprints (Следы)
    15. Liar (Обманщик)
    16. Two of a Kind (Два сапога пара)
    17. Twilight (Сумерки)
    18. Hearts Come Together (Единение сердец)
    19. Goodbye Hero (Прощай, герой)
    20. Hand in Hand (Рука об руку)
    21. Snow (Снегопад)
    22. Spring Wind (Дуновение весны)
    23. OVA

    General
    Unique ID : 222031481916737283310824201973863234231 (0xA709B53CFF973BB5F0984BE0C2433AB7)
    Complete name : J: АнимеТвоя Апрельская Ложь (Shigatsu wa Kimi no Uso) BDRip (2014)1. Monotone. Colorful (Чёрно-белый. Яркий).mkv
    Format : Matroska
    Format version : Version 4
    File size : 1.84 GiB
    Duration : 22 min 54 s
    Overall bit rate mode : Variable
    Overall bit rate : 11.5 Mb/s
    Encoded date : UTC 2019-08-09 09: 02: 44
    Writing application : mkvmerge v35.0.0 (\'All The Love In The World\') 64-bit
    Writing library : libebml v1.3.9 + libmatroska v1.5.2
    Attachments : BOOKOSB.TTF/BOOKOSBI.TTF/BOOKOSI.TTF/AGPmod.ttf
    Video
    ID : 1
    Format : AVC
    Format/Info : Advanced Video Codec
    Format profile : High 10@L5
    Format settings : CABAC/4 Ref Frames
    Format settings, CABAC : Yes
    Format settings, Reference : 4 frames
    Codec ID : V_MPEG4/ISO/AVC
    Duration : 22 min 51 s
    Bit rate : 9 129 kb/s
    Width : 1 920 pixels
    Height : 1 080 pixels
    Display aspect ratio : 16: 9
    Frame rate mode : Constant
    Frame rate : 23.976 (24000/1001) FPS
    Color space : YUV
    Chroma subsampling : 4: 2: 0
    Bit depth : 10 bits
    Scan type : Progressive
    Bits/(Pixel*Frame) : 0.184
    Stream size : 1.46 GiB (79%)
    Writing library : x264 core 148 r2597M e86f3a1 (DJATOM\'s build)
    Encoding settings : cabac=1/ref=4/deblock=1: 1: -1/analyse=0x3: 0x113/me=umh/subme=9/psy=1/fade_compensate=0.00/psy_rd=1.00: 0.00/mixed_ref=1/me_range=32/chroma_me=1/trellis=2/8x8dct=1/cqm=0/deadzone=21, 11/fast_pskip=1/chroma_qp_offset=-2/threads=9/lookahead_threads=1/sliced_threads=0/nr=0/decimate=1/interlaced=0/bluray_compat=0/constrained_intra=0/bframes=9/b_pyramid=2/b_adapt=2/b_bias=0/direct=1/weightb=1/open_gop=0/weightp=2/keyint=250/keyint_min=23/scenecut=40/intra_refresh=0/rc=crf/mbtree=0/crf=14.7000/qcomp=0.72/qpmin=0/qpmax=81/qpstep=4/ip_ratio=1.40/pb_ratio=1.30/aq=1: 0.85/zones=1080, 3236, crf=14/30736, 32943, crf=14
    Language : Japanese
    Default : Yes
    Forced : No
    Color range : Limited
    Color primaries : BT.709
    Transfer characteristics : BT.709
    Matrix coefficients : BT.709
    Audio #1
    ID : 2
    Format : AAC LC
    Format/Info : Advanced Audio Codec Low Complexity
    Codec ID : A_AAC-2
    Duration : 22 min 54 s
    Bit rate : 192 kb/s
    Channel(s) : 2 channels
    Channel layout : L R
    Sampling rate : 48.0 kHz
    Frame rate : 46.875 FPS (1024 SPF)
    Compression mode : Lossy
    Stream size : 31.0 MiB (2%)
    Title : KANSAI
    Language : Russian
    Default : Yes
    Forced : No
    Audio #2
    ID : 3
    Format : AAC LC
    Format/Info : Advanced Audio Codec Low Complexity
    Codec ID : A_AAC-2
    Duration : 22 min 54 s
    Bit rate : 192 kb/s
    Channel(s) : 2 channels
    Channel layout : L R
    Sampling rate : 48.0 kHz
    Frame rate : 46.875 FPS (1024 SPF)
    Compression mode : Lossy
    Stream size : 31.0 MiB (2%)
    Title : Kari, Aika, Itashi (Anilibria)
    Language : Russian
    Default : No
    Forced : No
    Audio #3
    ID : 4
    Format : AC-3
    Format/Info : Audio Coding 3
    Commercial name : Dolby Digital
    Codec ID : A_AC3
    Duration : 22 min 54 s
    Bit rate mode : Constant
    Bit rate : 192 kb/s
    Channel(s) : 2 channels
    Channel layout : L R
    Sampling rate : 48.0 kHz
    Frame rate : 31.250 FPS (1536 SPF)
    Compression mode : Lossy
    Stream size : 31.4 MiB (2%)
    Title : BalFor Trina_D (AniDub)
    Language : Russian
    Service kind : Complete Main
    Default : No
    Forced : No
    Audio #4
    ID : 5
    Format : AC-3
    Format/Info : Audio Coding 3
    Commercial name : Dolby Digital
    Codec ID : A_AC3
    Duration : 22 min 54 s
    Bit rate mode : Constant
    Bit rate : 192 kb/s
    Channel(s) : 2 channels
    Channel layout : L R
    Sampling rate : 48.0 kHz
    Frame rate : 31.250 FPS (1536 SPF)
    Compression mode : Lossy
    Stream size : 31.4 MiB (2%)
    Title : NIKITOS NesTea (SHIZA)
    Language : Russian
    Service kind : Complete Main
    Default : No
    Forced : No
    Audio #5
    ID : 6
    Format : AC-3
    Format/Info : Audio Coding 3
    Commercial name : Dolby Digital
    Codec ID : A_AC3
    Duration : 22 min 54 s
    Bit rate mode : Constant
    Bit rate : 192 kb/s
    Channel(s) : 2 channels
    Channel layout : L R
    Sampling rate : 48.0 kHz
    Frame rate : 31.250 FPS (1536 SPF)
    Compression mode : Lossy
    Stream size : 31.4 MiB (2%)
    Title : AniFilm
    Language : Russian
    Service kind : Complete Main
    Default : No
    Forced : No
    Audio #6
    ID : 7
    Format : FLAC
    Format/Info : Free Lossless Audio Codec
    Codec ID : A_FLAC
    Duration : 22 min 54 s
    Bit rate mode : Variable
    Bit rate : 1 402 kb/s
    Channel(s) : 2 channels
    Channel layout : L R
    Sampling rate : 48.0 kHz
    Frame rate : 11.719 FPS (4096 SPF)
    Bit depth : 24 bits
    Compression mode : Lossless
    Stream size : 230 MiB (12%)
    Title : Original
    Writing library : libFLAC 1.3.1 (UTC 2014-11-25)
    Language : Japanese
    Default : No
    Forced : No
    Text #1
    ID : 8
    Format : ASS
    Codec ID : S_TEXT/ASS
    Codec ID/Info : Advanced Sub Station Alpha
    Duration : 21 min 41 s
    Bit rate : 17 b/s
    Count of elements : 33
    Compression mode : Lossless
    Stream size : 2.80 KiB (0%)
    Title : Forced
    Language : Russian
    Default : Yes
    Forced : No
    Text #2
    ID : 9
    Format : ASS
    Codec ID : S_TEXT/ASS
    Codec ID/Info : Advanced Sub Station Alpha
    Duration : 22 min 39 s
    Bit rate : 130 b/s
    Count of elements : 304
    Compression mode : Lossless
    Stream size : 21.6 KiB (0%)
    Title : Full
    Language : Russian
    Default : No
    Forced : No
    Menu
    00: 00: 00.000 : en: Avant
    00: 00: 45.045 : en: OP
    00: 02: 15.009 : en: Part A
    00: 10: 33.966 : en: Part B
    00: 21: 21.947 : en: ED

    General
    Unique ID : 56139388288584645937714661080349065236 (0x2A3C0D8A9F47B725679E1B243324C014)
    Complete name : J: АнимеТвоя Апрельская Ложь (Shigatsu wa Kimi no Uso) BDRip (2014)23. OVA.mkv
    Format : Matroska
    Format version : Version 4
    File size : 365 MiB
    Duration : 23 min 14 s
    Overall bit rate mode : Variable
    Overall bit rate : 2 194 kb/s
    Encoded date : UTC 2020-02-16 05: 52: 47
    Writing application : mkvmerge v43.0.0 (\'The Quartermaster\') 64-bit
    Writing library : libebml v1.3.10 + libmatroska v1.5.2
    Attachments : AGPmode.ttf/BOOKMO.ttf/BOOKOS.TTF/BOOKOSBI.TTF/BOOKOSI.TTF
    Video
    ID : 1
    Format : AVC
    Format/Info : Advanced Video Codec
    Format profile : High10@L5.1
    Format settings : CABAC/13 Ref Frames
    Format settings, CABAC : Yes
    Format settings, Reference : 13 frames
    Codec ID : V_MPEG4/ISO/AVC
    Duration : 23 min 14 s
    Bit rate : 1 249 kb/s
    Width : 1 280 pixels
    Height : 720 pixels
    Display aspect ratio : 16: 9
    Frame rate mode : Constant
    Frame rate : 23.976 (24000/1001) FPS
    Color space : YUV
    Chroma subsampling : 4: 2: 0
    Bit depth : 10 bits
    Scan type : Progressive
    Bits/(Pixel*Frame) : 0.057
    Stream size : 208 MiB (57%)
    Writing library : x264 core 146 r2538kMod 121396c
    Encoding settings : cabac=1/ref=13/deblock=1: -1: -1/analyse=0x3: 0x133/me=umh/subme=10/psy=1/fade_compensate=0.00/psy_rd=0.60: 0.15/mixed_ref=1/me_range=32/chroma_me=1/trellis=2/8x8dct=1/cqm=0/deadzone=21, 11/fast_pskip=0/chroma_qp_offset=-3/threads=12/lookahead_threads=2/sliced_threads=0/nr=0/decimate=0/interlaced=0/bluray_compat=0/constrained_intra=0/fgo=0/bframes=8/b_pyramid=2/b_adapt=2/b_bias=0/direct=3/weightb=1/open_gop=0/weightp=2/keyint=720/keyint_min=1/scenecut=40/intra_refresh=0/rc_lookahead=80/rc=crf/mbtree=1/crf=17.0000/qcomp=0.75/qpmin=0/qpmax=81/qpstep=4/ip_ratio=1.40/aq=3: 0.80
    Language : Japanese
    Default : Yes
    Forced : No
    Color range : Limited
    Matrix coefficients : BT.709
    Audio #1
    ID : 2
    Format : AAC LC
    Format/Info : Advanced Audio Codec Low Complexity
    Codec ID : A_AAC-2
    Duration : 23 min 4 s
    Bit rate : 186 kb/s
    Channel(s) : 2 channels
    Channel layout : L R
    Sampling rate : 48.0 kHz
    Frame rate : 46.875 FPS (1024 SPF)
    Compression mode : Lossy
    Stream size : 30.7 MiB (8%)
    Title : AniDub (BalFor Trina_D)
    Language : Russian
    Default : Yes
    Forced : No
    Audio #2
    ID : 3
    Format : AAC LC
    Format/Info : Advanced Audio Codec Low Complexity
    Codec ID : A_AAC-2
    Duration : 23 min 14 s
    Bit rate : 93.4 kb/s
    Channel(s) : 2 channels
    Channel layout : L R
    Sampling rate : 48.0 kHz
    Frame rate : 46.875 FPS (1024 SPF)
    Compression mode : Lossy
    Stream size : 15.5 MiB (4%)
    Title : Kari, Aika, Itashi (Anilibria)
    Language : Russian
    Default : No
    Forced : No
    Audio #3
    ID : 4
    Format : FLAC
    Format/Info : Free Lossless Audio Codec
    Codec ID : A_FLAC
    Duration : 23 min 14 s
    Bit rate mode : Variable
    Bit rate : 660 kb/s
    Channel(s) : 2 channels
    Channel layout : L R
    Sampling rate : 48.0 kHz
    Frame rate : 11.719 FPS (4096 SPF)
    Bit depth : 16 bits
    Compression mode : Lossless
    Stream size : 110 MiB (30%)
    Title : Original
    Writing library : libFLAC 1.2.1 (UTC 2007-09-17)
    Language : Japanese
    Default : No
    Forced : No
    Text #1
    ID : 5
    Format : ASS
    Codec ID : S_TEXT/ASS
    Codec ID/Info : Advanced Sub Station Alpha
    Duration : 21 min 31 s
    Bit rate : 53 b/s
    Count of elements : 71
    Compression mode : Lossless
    Stream size : 8.44 KiB (0%)
    Title : Forced (Timecraft DLYS)
    Language : Russian
    Default : Yes
    Forced : No
    Text #2
    ID : 6
    Format : ASS
    Codec ID : S_TEXT/ASS
    Codec ID/Info : Advanced Sub Station Alpha
    Duration : 21 min 31 s
    Bit rate : 168 b/s
    Count of elements : 348
    Compression mode : Lossless
    Stream size : 26.5 KiB (0%)
    Title : Full (Timecraft DLYS)
    Language : Russian
    Default : No
    Forced : No
    Menu
    00: 00: 00.000 : en: Chapter 01
    00: 01: 06.066 : en: Chapter 02
    00: 02: 36.024 : en: Chapter 03
    00: 12: 34.088 : en: Chapter 04
    00: 21: 33.995 : en: Chapter 05
    Время раздачи: С 8: 00 по 18: 00 МСК (до появления первых 3-5 скачавших)
    Понравился релиз? Ставь Оценку и нажми Спасибо
    Это серьёзно меня мотивирует делать подобные релизы.
    Если всем сердцем любишь аниме - подключайся и оставайся на раздаче максимально долго!
    За ретайминг звука и субтитров огромное спасибо DS2902
    Полный список ретаймов


    Онлайн видео Shigatsu wa Kimi no Uso


    Shigatsu wa Kimi no Uso | Your Lie in April | Твоя Апрельская Ложь [2014, TV, 22 ep + OVA] BDRip 1080p 10-bit raw+rus торрент скачать бесплатно
    Рейтинг →
     (голосов: 1, оценка 5/5, голосовать можно 1 раз )

    Другие торренты по теме:

  • Shigatsu wa Kimi no Uso / Your Lie in April / Твоя апрельская ложь [2014, TV, 1 из >22] HDTV 720p Hi10p raw
  • Shigatsu wa Kimi no Uso / Your Lie in April / Твоя апрельская ложь [2014, TV, 1 из 22] WEBRip 720p Raw+Rus скачать через торрент бесплатно
  • Shigatsu wa Kimi no Uso / Your Lie in April / Твоя апрельская ложь [2014, TV, 1 из 22] BDrip 1080p Hi10p raw скачать через торрент бесплатно
  • Shigatsu wa Kimi no Uso / Your Lie in April / Твоя апрельская ложь [2014, TV, 22 ep] BDRip Hi10p 720p Raw+Rus x3(ext) скачать через торрент бесплатно
  • Shigatsu wa Kimi no Uso / Your Lie in April / Твоя апрельская ложь [2014, TV, 22] BDrip 1080p Hi10p raw
  • Твоя апрельская ложь / Shigatsu wa kimi no uso / Your Lie in April (2016) BDRip [H.264 / 1080p] [MVO]
  • Твоя апрельская ложь / Shigatsu wa kimi no uso / Your Lie in April (2016) HDRip [MVO]


    • Комментарии (0):

      Информация

      Информация

        Посетители, находящиеся в группе Гости, не могут оставлять комментарии в данной новости.

        ↓ Меню




        Популярное

        Роботы-пожарные / Fire Robo (2016) WEB-DLRip [H.264 / 720p-LQ] (сезон 1, серии 1-26 из 26) [Обновляемая]

        (скачиваний: 6)
        Лея Уотерс | Переключение на силу. Как научиться видеть в детях сильные стороны, чтобы помочь им расцвести (2019) [EPUB]

        (скачиваний: 5)
        Жила-была царевна (2015-2019) WEB-DLRip [H.264 / 720p-LQ] (сезон 1, серии 1-18 из 26) [Обновляемая]

        (скачиваний: 5)
        Сергей Матвеев | Полный курс английского языка для лентяев (2016) [PDF]

        (скачиваний: 5)
        Алексей Марков | Хулиганская экономика. Финансовые рынки для хулиганов и их родителей (2019) [EPUB]

        (скачиваний: 4)
        Металионы / Metalions (2018-2019) WEB-DLRip [H.264 / 720p-LQ] (сезон 1, серии 1-52 из 52) [Обновляемая]

        (скачиваний: 4)
        Александр Нилл | Воспитание свободой. Школа Саммерхилл (2020) [EPUB]

        (скачиваний: 4)
        Серия книг | Образовательная манга (2010 - 2015) [PDF]

        (скачиваний: 4)
        Мариэтта Чудакова | Рассказы про Россию. 1861—1922 (2020) [EPUB]

        (скачиваний: 3)
        Gekijouban KanColle | Kantai Collection Movie | Fleet Girls Collection: Movie Sequence| Коллекционная флотилия на большом экране [2016, Movie] BDrip 720p 10bit raw

        (скачиваний: 3)