Подписывайся на наш канал в Telegram https://t.me/torrentok и получи доступ к торрентам без ограничений!
.
Авторизация | Регистрация
bitok.xyz
Торрент скачать бесплатно Мультфильмы торрент скачать Холодное сердце 2 / Frozen II (2019) BDRip [H.264 / 1080p-LQ] [hand made 16:9] торрент скачать бесплатно


    Холодное сердце 2 / Frozen II (2019) BDRip [H.264 / 1080p-LQ] [hand made 16:9] торрент скачать бесплатно

    Дата: 18-02-2020, 05:00 | .torrent скачали: 1

    Холодное сердце 2 / Frozen II (2019) BDRip [H.264 / 1080p-LQ] [hand made 16:9]Производство: США, Walt Disney
    Жанр: мультфильм, мюзикл, фэнтези, комедия, приключения, семейный
    Режиссер: Крис Бак, Дженнифер Ли

    Описание

    Анна, Эльза, Кристоф, его верный олень Свен и никогда не унывающий снеговик Олаф должны будут покинуть уютное королевство Эренделл и отправиться ещё дальше на север, в путешествие, которое приведет их к истокам древних легенд и поможет раскрыть тайны, касающиеся прошлого их родной страны.

    Возраст: 6+ (зрителям, достигшим 6 лет)
    Рейтинг MPAA: PG (рекомендуется присутствие родителей)
    Дата мировой премьеры: 7 ноября 2019
    Дата российской премьеры: 28 ноября 2019
    Релиз от: SergeyAms
    Продолжительность: 01: 43: 14
    Качество видео: BDRip
    Перевод: Дублированный (iTunes)
    Субтитры: русские (полные), английские (полные)
    Видео: H.264/AVC, 1920x1080, ~5 Mbps
    Аудио #1: AC3, 6 ch, 384 Kbps - русский
    Аудио #2: DTS, 6 ch, 768 Kbps - английский
    x264 info: frame I: 1059 Avg QP: 16.16 size: 167250
    x264 info: frame P: 41827 Avg QP: 18.10 size: 51046
    x264 info: frame B: 105622 Avg QP: 19.24 size: 14764
    Unique ID : 171866493060095763444231353779528855541 (0x814C4854AE46B1849C6F39749D92EFF5)
    Complete name : D: TempNNMХолодное сердце.2019.1080p.FS.mkv
    Format : Matroska
    Format version : Version 4/Version 2
    File size : 4.44 GiB
    Duration : 1h 43mn
    Overall bit rate : 6 155 Kbps
    Encoded date : UTC 2020-02-17 13: 38: 27
    Writing application : mkvmerge v9.8.0 (\'Kuglblids\') 64bit
    Writing library : Lavf57.71.100
    Video
    ID : 1
    Format : AVC
    Format/Info : Advanced Video Codec
    Format profile : High@L4.1
    Format settings, CABAC : Yes
    Format settings, ReFrames : 4 frames
    Codec ID : V_MPEG4/ISO/AVC
    Duration : 1h 43mn
    Bit rate : 5 000 Kbps
    Width : 1 920 pixels
    Height : 1 080 pixels
    Display aspect ratio : 16: 9
    Frame rate mode : Constant
    Frame rate : 23.976 fps
    Color space : YUV
    Chroma subsampling : 4: 2: 0
    Bit depth : 8 bits
    Scan type : Progressive
    Bits/(Pixel*Frame) : 0.101
    Stream size : 3.52 GiB (79%)
    Writing library : x264 core 157 r2935 545de2f
    Encoding settings : cabac=1/ref=4/deblock=1: -3: -3/analyse=0x3: 0x113/me=umh/subme=11/psy=1/psy_rd=1.05: 0.10/mixed_ref=1/me_range=48/chroma_me=1/trellis=2/8x8dct=1/cqm=0/deadzone=21, 11/fast_pskip=0/chroma_qp_offset=-3/threads=5/lookahead_threads=1/sliced_threads=0/nr=0/decimate=0/interlaced=0/bluray_compat=0/constrained_intra=0/bframes=8/b_pyramid=2/b_adapt=2/b_bias=0/direct=1/weightb=1/open_gop=0/weightp=2/keyint=240/keyint_min=24/scenecut=40/intra_refresh=0/rc=2pass/mbtree=0/bitrate=5000/ratetol=1.0/qcomp=0.70/qpmin=3/qpmax=69/qpstep=4/cplxblur=20.0/qblur=0.5/ip_ratio=1.40/pb_ratio=1.30/aq=2: 1.00
    Default : Yes
    Forced : No
    Audio #1
    ID : 2
    Format : AC-3
    Format/Info : Audio Coding 3
    Mode extension : CM (complete main)
    Format settings, Endianness : Big
    Codec ID : A_AC3
    Duration : 1h 43mn
    Bit rate mode : Constant
    Bit rate : 384 Kbps
    Channel(s) : 6 channels
    Channel positions : Front: L C R, Side: L R, LFE
    Sampling rate : 48.0 KHz
    Bit depth : 16 bits
    Compression mode : Lossy
    Stream size : 284 MiB (6%)
    Language : Russian
    Default : Yes
    Forced : No
    Audio #2
    ID : 3
    Format : DTS
    Format/Info : Digital Theater Systems
    Mode : 16
    Format settings, Endianness : Big
    Codec ID : A_DTS
    Duration : 1h 43mn
    Bit rate mode : Constant
    Bit rate : 768 Kbps
    Channel(s) : 6 channels
    Channel positions : Front: L C R, Side: L R, LFE
    Sampling rate : 48.0 KHz
    Bit depth : 16 bits
    Compression mode : Lossy
    Stream size : 567 MiB (12%)
    Language : English
    Default : No
    Forced : No
    Text #1
    ID : 4
    Format : UTF-8
    Codec ID : S_TEXT/UTF8
    Codec ID/Info : UTF-8 Plain Text
    Language : Russian
    Default : Yes
    Forced : No
    Text #2
    ID : 5
    Format : UTF-8
    Codec ID : S_TEXT/UTF8
    Codec ID/Info : UTF-8 Plain Text
    Language : English
    Default : No
    Forced : No

    Скриншоты для ознакомления



    Все одноименные релизы в Клубе
    Время раздачи: c 11: 00 до 01: 00 (до появления первых 3-5 скачавших)

    Онлайн видео Холодное сердце 2


    Холодное сердце 2 / Frozen II (2019) BDRip [H.264 / 1080p-LQ] [hand made 16:9] торрент скачать бесплатно
    Рейтинг →
     (голосов: 1, оценка 5/5, голосовать можно 1 раз )

    Другие торренты по теме:

  • Frozen. Free Fall / Холодное Сердце. Звездопад 2.6 [Ru] скачать через торрент бесплатно
  • Холодное сердце (2016) HDTV [H.264 / 1080i] (серии 1-2 из 2)
  • Холодное сердце (2016) HDTVRip [H.264] (серии 1-2 из 2)
  • Холодное сердце / Frozen (2013) BDRip [H.264 / 1080p] [handmade 16:9]
  • Дмитрий Браславский | Мерцание эльфийского портала, Холодное сердце Далрока [2 книги] (2012-2015) [DOC, PDF]
  • Холодное сердце / Das kalte Herz (2016) HDRip [AD]
  • Холодное сердце / Das Kalte Herz (1950) HDRip [H.264] [AVO]
  • Yuletide Legends 2: Frozen Hearts / Святочные истории 2: Холодное сердце (2017) [Ru] (1.0) Unofficial [Collectors Edition / Коллекционное издание]


    • Комментарии (0):

      Информация

      Информация

        Посетители, находящиеся в группе Гости, не могут оставлять комментарии в данной новости.