ВАЖНО! Сайт скоро заблокируют! Подписывайся на наш канал в Telegram https://t.me/torrentok и получи доступ к торрентам без ограничений!
.
Авторизация | Регистрация
bitok.xyz
Торрент скачать бесплатно Мультфильмы торрент скачать Гадкий я (2010, 2013, 2017) / Despicable Me (2010, 2013, 2017) BDRip [H.264 / 1080p] [Трилогия] торрент скачать бесплатно


    Гадкий я (2010, 2013, 2017) / Despicable Me (2010, 2013, 2017) BDRip [H.264 / 1080p] [Трилогия] торрент скачать бесплатно

    Дата: 18-02-2020, 05:00 | .torrent скачали: 0

    Гадкий я (2010, 2013, 2017) / Despicable Me (2010, 2013, 2017) BDRip [H.264 / 1080p] [Трилогия]Год выпуска: 2010, 2013, 2017
    Производство: США, Франция/Universal Pictures, Illumination Entertainment
    Жанр: мультфильм, фэнтези, комедия, семейный,
    Режиссер: Пьер Коффан, Крис Рено, Кайл Балда, Эрик Гуильон

    Описание

    Гадкий снаружи, но добрый внутри Грю намерен, тем не менее, закрепить за собой статус главного архизлодея в мире, для чего он решает выкрасть Луну при помощи созданной им армии миньонов. Дело осложняют конкуренты, вставляющие высокотехнические палки в колеса, и семейные обстоятельства в виде трех сироток, о которых Грю вынужден заботиться.
    Продолжительность: 01: 34: 49/01: 37: 59/01: 29: 40
    Качество видео: BDRip 1080p
    Перевод: Дублированный
    Субтитры: русские, английские
    Видео: AVC/H.264, 1920x1040/1920X804, ~15 mbps
    Аудио 1: AC3, 6 ch, 448 kbps, Русский (DUB)
    Аудио 2: DTS, 6 ch, 1509 kbps, АнглийскийГадкий я (2010)/Despicable Me (2010) BDRip H.264/1080p
    Производство: США, Франция/Universal Pictures, Illumination Entertainment
    Жанр: мультфильм, фэнтези, комедия, семейный,
    Год выпуска: 2010
    Режиссер: Пьер Коффан, Крис Рено

    Описание

    Гадкий снаружи, но добрый внутри Грю намерен, тем не менее, закрепить за собой статус главного архизлодея в мире, для чего он решает выкрасть Луну при помощи созданной им армии миньонов. Дело осложняют конкуренты, вставляющие высокотехнические палки в колеса, и семейные обстоятельства в виде трех сироток, о которых Грю вынужден заботиться.

    Возраст: 0+ (для любой зрительской аудитории)
    Рейтинг MPAA: PG (рекомендуется присутствие родителей)
    Продолжительность: 01: 34: 49
    Качество видео: BDRip 1080p
    Перевод: Дублированный
    Субтитры: русские, английские
    Видео: AVC/H.264, 1920x1040, ~15 mbps
    Аудио 1: AC3, 6 ch, 448 kbps, Русский (DUB)
    Аудио 2: DTS, 6 ch, 1509 kbps, Английский
    Общее
    Уникальный идентификатор : 249626799875305643148952182268781030998 (0xBBCC5F7512AB5FD2A0094700FECE6E56)
    Полное имя : D: MULTDespicable Me. CollectionGadkiy.Ya.2010.BDRip.1080p.mkv
    Формат : Matroska
    Версия формата : Version 4
    Размер файла : 11, 2 Гбайт
    Продолжительность : 1 ч. 34 м.
    Общий поток : 16, 9 Мбит/сек
    Дата кодирования : UTC 2020-02-16 08: 25: 14
    Программа кодирования : mkvmerge v8.2.0 (\'World of Adventure\') 64bit
    Библиотека кодирования : libebml v1.3.1 + libmatroska v1.4.2
    Видео
    Идентификатор : 1
    Формат : AVC
    Формат/Информация : Advanced Video Codec
    Профиль формата : High@L4.1
    Настройки формата : CABAC/4 Ref Frames
    Параметр CABAC формата : Да
    Параметр RefFrames формата : 4 кадра
    Идентификатор кодека : V_MPEG4/ISO/AVC
    Продолжительность : 1 ч. 34 м.
    Битрейт : 15, 0 Мбит/сек
    Ширина : 1920 пикселей
    Высота : 1040 пикселей
    Соотношение сторон : 1, 85: 1
    Режим частоты кадров : Постоянный
    Частота кадров : 23, 976 (24000/1001) кадра/сек
    Цветовое пространство : YUV
    Субдискретизация насыщенности : 4: 2: 0
    Битовая глубина : 8 бит
    Тип развёртки : Прогрессивная
    Бит/(Пиксели*Кадры) : 0.313
    Размер потока : 9, 92 Гбайт (88%)
    Заголовок : Gadkiy.Ya.2010.BDRip 1080p.Part 1
    Библиотека кодирования : x264 core 152 r2851M ba24899
    Настройки программы : cabac=1/ref=4/deblock=1: -3: -3/analyse=0x3: 0x113/me=umh/subme=11/psy=1/psy_rd=1.05: 0.05/mixed_ref=1/me_range=48/chroma_me=1/trellis=2/8x8dct=1/cqm=0/deadzone=21, 11/fast_pskip=0/chroma_qp_offset=-6/threads=6/lookahead_threads=4/sliced_threads=0/nr=0/decimate=0/interlaced=0/bluray_compat=0/constrained_intra=0/bframes=10/b_pyramid=2/b_adapt=2/b_bias=0/direct=3/weightb=1/open_gop=0/weightp=2/keyint=240/keyint_min=23/scenecut=40/intra_refresh=0/rc_lookahead=50/rc=2pass/mbtree=0/bitrate=15000/ratetol=1.0/qcomp=0.60/qpmin=0/qpmax=69/qpstep=4/cplxblur=20.0/qblur=0.5/vbv_maxrate=50000/vbv_bufsize=62500/nal_hrd=none/filler=0/ip_ratio=1.40/pb_ratio=1.30/aq=3: 0.80
    Язык : English
    Default : Да
    Forced : Нет
    Аудио #1
    Идентификатор : 2
    Формат : AC-3
    Формат/Информация : Audio Coding 3
    Коммерческое название : Dolby Digital
    Идентификатор кодека : A_AC3
    Продолжительность : 1 ч. 34 м.
    Вид битрейта : Постоянный
    Битрейт : 448 Кбит/сек
    Каналы : 6 каналов
    ChannelLayout : L R C LFE Ls Rs
    Частота : 48, 0 КГц
    Частота кадров : 31, 250 кадров/сек (1536 SPF)
    Метод сжатия : С потерями
    Размер потока : 303 Мбайт (3%)
    Заголовок : License
    Язык : Russian
    ServiceKind/String : Complete Main
    Default : Нет
    Forced : Нет
    Аудио #2
    Идентификатор : 3
    Формат : DTS
    Формат/Информация : Digital Theater Systems
    Идентификатор кодека : A_DTS
    Продолжительность : 1 ч. 34 м.
    Вид битрейта : Постоянный
    Битрейт : 1509 Кбит/сек
    Каналы : 6 каналов
    ChannelLayout : C L R Ls Rs LFE
    Частота : 48, 0 КГц
    Частота кадров : 93, 750 кадра/сек (512 SPF)
    Битовая глубина : 24 бит
    Метод сжатия : С потерями
    Размер потока : 1023 Мбайт (9%)
    Заголовок : Original
    Язык : English
    Default : Нет
    Forced : Нет
    Текст #1
    Идентификатор : 4
    Формат : UTF-8
    Идентификатор кодека : S_TEXT/UTF8
    Идентификатор кодека/Информация : UTF-8 Plain Text
    Продолжительность : 1 ч. 10 м.
    Битрейт : 2 бит/сек
    ElementCount : 34
    Размер потока : 1, 28 Кбайт (0%)
    Заголовок : Forced
    Язык : Russian
    Default : Да
    Forced : Нет
    Текст #2
    Идентификатор : 5
    Формат : UTF-8
    Идентификатор кодека : S_TEXT/UTF8
    Идентификатор кодека/Информация : UTF-8 Plain Text
    Продолжительность : 1 ч. 28 м.
    Битрейт : 68 бит/сек
    ElementCount : 973
    Размер потока : 44, 7 Кбайт (0%)
    Язык : Russian
    Default : Нет
    Forced : Нет
    Текст #3
    Идентификатор : 6
    Формат : UTF-8
    Идентификатор кодека : S_TEXT/UTF8
    Идентификатор кодека/Информация : UTF-8 Plain Text
    Продолжительность : 1 ч. 29 м.
    Битрейт : 40 бит/сек
    ElementCount : 922
    Размер потока : 26, 5 Кбайт (0%)
    Язык : English
    Default : Нет
    Forced : Нет
    Меню
    00: 00: 00.000 : en: Global Panic
    00: 03: 22.411 : en: Meet Gru
    00: 06: 31.891 : en: Crime Of The Century
    00: 12: 05.099 : en: Home for Girls
    00: 13: 50.496 : en: Bank of Evil
    00: 18: 38.826 : en: Shrink Ray Theft
    00: 23: 06.844 : en: Vector\'s Fortress
    00: 25: 56.221 : en: Adoption
    00: 30: 40.839 : en: Setting Some Rules
    00: 34: 48.753 : en: Top Secret
    00: 39: 43.047 : en: Pinky Promise
    00: 43: 38.366 : en: Cookiebots
    00: 48: 19.188 : en: Fun Land
    00: 52: 52.502 : en: Cotton Candy?
    00: 56: 46.111 : en: New Funding
    01: 02: 08.016 : en: Sleepy Kittens
    01: 09: 23.868 : en: To the Moon
    01: 16: 25.456 : en: Rescue
    01: 22: 41.581 : en: One Big Unicorn
    01: 27: 35.375 : en: End Titles

    Скриншоты для ознакомления



    Все одноименные релизы в Клубе Гадкий я 2 (2013)/Despicable Me 2 (2013) BDRip H.264/1080p
    Производство: США, Франция, Япония/Universal Pictures, Illumination Entertainment
    Жанр: мультфильм, фэнтези, комедия, семейный,
    Год выпуска: 2013
    Режиссер: Пьер Коффан, Крис Рено

    Описание

    В то время как Грю, бывший суперзлодей, приспосабливается к семейной жизни и пытается честным трудом зарабатывать в сфере бизнеса, тайные лаборатории Арктики оказываются украденными. Анти-Злодейская лига решает, что она нуждается в помощи Грю и его новобранцев в расследовании.

    Возраст: 0+ (для любой зрительской аудитории)
    Рейтинг MPAA: PG (рекомендуется присутствие родителей)
    Продолжительность: 01: 37: 59
    Качество видео: BDRip 1080p
    Перевод: Дублированный
    Субтитры: русские, английские
    Видео: AVC/H.264, 1920x1040, ~15 mbps
    Аудио 1: AC3, 6 ch, 448 kbps, Русский (DUB)
    Аудио 2: DTS, 6 ch, 1509 kbps, Английский
    Общее
    Уникальный идентификатор : 237242440611502487840679900148274346998 (0xB27B3B675275EADD985BB5B65520BBF6)
    Полное имя : D: MULTDespicable Me. CollectionGadkiy.Ya.2.2013.BDRip.1080p.mkv
    Формат : Matroska
    Версия формата : Version 4
    Размер файла : 11, 6 Гбайт
    Продолжительность : 1 ч. 37 м.
    Общий поток : 17, 0 Мбит/сек
    Дата кодирования : UTC 2020-02-16 09: 11: 24
    Программа кодирования : mkvmerge v8.2.0 (\'World of Adventure\') 64bit
    Библиотека кодирования : libebml v1.3.1 + libmatroska v1.4.2
    Видео
    Идентификатор : 1
    Формат : AVC
    Формат/Информация : Advanced Video Codec
    Профиль формата : High@L4.1
    Настройки формата : CABAC/4 Ref Frames
    Параметр CABAC формата : Да
    Параметр RefFrames формата : 4 кадра
    Идентификатор кодека : V_MPEG4/ISO/AVC
    Продолжительность : 1 ч. 37 м.
    Битрейт : 15, 0 Мбит/сек
    Ширина : 1920 пикселей
    Высота : 1040 пикселей
    Соотношение сторон : 1, 85: 1
    Режим частоты кадров : Постоянный
    Частота кадров : 23, 976 (24000/1001) кадра/сек
    Цветовое пространство : YUV
    Субдискретизация насыщенности : 4: 2: 0
    Битовая глубина : 8 бит
    Тип развёртки : Прогрессивная
    Бит/(Пиксели*Кадры) : 0.313
    Размер потока : 10, 3 Гбайт (88%)
    Заголовок : Gadkiy.Ya.2010.BDRip 1080p.Part 2
    Библиотека кодирования : x264 core 152 r2851M ba24899
    Настройки программы : cabac=1/ref=4/deblock=1: -3: -3/analyse=0x3: 0x113/me=umh/subme=11/psy=1/psy_rd=1.05: 0.05/mixed_ref=1/me_range=48/chroma_me=1/trellis=2/8x8dct=1/cqm=0/deadzone=21, 11/fast_pskip=0/chroma_qp_offset=-6/threads=6/lookahead_threads=4/sliced_threads=0/nr=0/decimate=0/interlaced=0/bluray_compat=0/constrained_intra=0/bframes=10/b_pyramid=2/b_adapt=2/b_bias=0/direct=3/weightb=1/open_gop=0/weightp=2/keyint=240/keyint_min=23/scenecut=40/intra_refresh=0/rc_lookahead=50/rc=2pass/mbtree=0/bitrate=15000/ratetol=1.0/qcomp=0.60/qpmin=0/qpmax=69/qpstep=4/cplxblur=20.0/qblur=0.5/vbv_maxrate=50000/vbv_bufsize=62500/nal_hrd=none/filler=0/ip_ratio=1.40/pb_ratio=1.30/aq=3: 0.80
    Язык : English
    Default : Да
    Forced : Нет
    Аудио #1
    Идентификатор : 2
    Формат : AC-3
    Формат/Информация : Audio Coding 3
    Коммерческое название : Dolby Digital
    Идентификатор кодека : A_AC3
    Продолжительность : 1 ч. 37 м.
    Вид битрейта : Постоянный
    Битрейт : 448 Кбит/сек
    Каналы : 6 каналов
    ChannelLayout : L R C LFE Ls Rs
    Частота : 48, 0 КГц
    Частота кадров : 31, 250 кадров/сек (1536 SPF)
    Метод сжатия : С потерями
    Размер потока : 314 Мбайт (3%)
    Заголовок : License
    Язык : Russian
    ServiceKind/String : Complete Main
    Default : Нет
    Forced : Нет
    Аудио #2
    Идентификатор : 3
    Формат : DTS
    Формат/Информация : Digital Theater Systems
    Идентификатор кодека : A_DTS
    Продолжительность : 1 ч. 37 м.
    Вид битрейта : Постоянный
    Битрейт : 1509 Кбит/сек
    Каналы : 6 каналов
    ChannelLayout : C L R Ls Rs LFE
    Частота : 48, 0 КГц
    Частота кадров : 93, 750 кадра/сек (512 SPF)
    Битовая глубина : 24 бит
    Метод сжатия : С потерями
    Размер потока : 1, 03 Гбайт (9%)
    Заголовок : Original
    Язык : English
    Default : Нет
    Forced : Нет
    Текст #1
    Идентификатор : 4
    Формат : UTF-8
    Идентификатор кодека : S_TEXT/UTF8
    Идентификатор кодека/Информация : UTF-8 Plain Text
    Продолжительность : 1 ч. 8 м.
    Битрейт : 0 бит/сек
    ElementCount : 10
    Размер потока : 217 байт (0%)
    Заголовок : Forced
    Язык : Russian
    Default : Да
    Forced : Нет
    Текст #2
    Идентификатор : 5
    Формат : UTF-8
    Идентификатор кодека : S_TEXT/UTF8
    Идентификатор кодека/Информация : UTF-8 Plain Text
    Продолжительность : 1 ч. 36 м.
    Битрейт : 59 бит/сек
    ElementCount : 918
    Размер потока : 42, 1 Кбайт (0%)
    Язык : Russian
    Default : Нет
    Forced : Нет
    Текст #3
    Идентификатор : 6
    Формат : UTF-8
    Идентификатор кодека : S_TEXT/UTF8
    Идентификатор кодека/Информация : UTF-8 Plain Text
    Продолжительность : 1 ч. 33 м.
    Битрейт : 40 бит/сек
    ElementCount : 1082
    Размер потока : 27, 7 Кбайт (0%)
    Язык : English
    Default : Нет
    Forced : Нет
    Меню
    00: 00: 00.000 : en: Chapter 1
    00: 03: 22.994 : en: Chapter 2
    00: 08: 04.734 : en: Chapter 3
    00: 15: 50.867 : en: Chapter 4
    00: 18: 28.232 : en: Chapter 5
    00: 24: 36.892 : en: Chapter 6
    00: 30: 50.724 : en: Chapter 7
    00: 34: 40.704 : en: Chapter 8
    00: 40: 48.279 : en: Chapter 9
    00: 46: 26.200 : en: Chapter 10
    00: 51: 23.122 : en: Chapter 11
    00: 56: 27.426 : en: Chapter 12
    01: 00: 00.472 : en: Chapter 13
    01: 03: 27.053 : en: Chapter 14
    01: 08: 44.078 : en: Chapter 15
    01: 14: 01.979 : en: Chapter 16
    01: 18: 08.058 : en: Chapter 17
    01: 22: 33.907 : en: Chapter 18
    01: 27: 09.099 : en: Chapter 19
    01: 30: 33.720 : en: Chapter 20

    Скриншоты для ознакомления



    Все одноименные релизы в Клубе Гадкий я 3 (2017)/Despicable Me 3 (2017) BDRip H.264/1080p
    Производство: США/Universal Pictures, Illumination Entertainment
    Жанр: мультфильм, фэнтези, комедия, семейный,
    Год выпуска: 2017
    Режиссер: Кайл Балда, Пьер Коффан, Эрик Гуильон

    Описание

    Грядет третье пришествие. Многодетный суперагент, роковая красотка и бессмертные миньоны на подходе. Готовьтесь. Они будут править миром.

    Возраст: 0+ (для любой зрительской аудитории)
    Рейтинг MPAA: PG (рекомендуется присутствие родителей)
    Продолжительность: 01: 29: 40
    Качество видео: BDRip 1080p
    Перевод: Дублированный
    Субтитры: русские, английские
    Видео: AVC/H.264, 1920x804, ~15 mbps
    Аудио 1: AC3, 6 ch, 448 kbps, Русский (DUB)
    Аудио 2: DTS, 6 ch, 1509 kbps, Английский
    Общее
    Уникальный идентификатор : 187290632040504257141869342689084683333 (0x8CE6DD187E8405E19BF5C4D4C3ADB445)
    Полное имя : D: MULTDespicable Me. CollectionGadkiy.Ya.3.2017.BDRip.1080p.mkv
    Формат : Matroska
    Версия формата : Version 4
    Размер файла : 10, 6 Гбайт
    Продолжительность : 1 ч. 29 м.
    Общий поток : 17, 0 Мбит/сек
    Дата кодирования : UTC 2020-02-16 09: 27: 26
    Программа кодирования : mkvmerge v8.2.0 (\'World of Adventure\') 64bit
    Библиотека кодирования : libebml v1.3.1 + libmatroska v1.4.2
    Видео
    Идентификатор : 1
    Формат : AVC
    Формат/Информация : Advanced Video Codec
    Профиль формата : High@L4.1
    Настройки формата : CABAC/5 Ref Frames
    Параметр CABAC формата : Да
    Параметр RefFrames формата : 5 кадров
    Идентификатор кодека : V_MPEG4/ISO/AVC
    Продолжительность : 1 ч. 29 м.
    Битрейт : 15, 0 Мбит/сек
    Ширина : 1920 пикселей
    Высота : 804 пикселя
    Соотношение сторон : 2, 40: 1
    Режим частоты кадров : Постоянный
    Частота кадров : 23, 976 (24000/1001) кадра/сек
    Цветовое пространство : YUV
    Субдискретизация насыщенности : 4: 2: 0
    Битовая глубина : 8 бит
    Тип развёртки : Прогрессивная
    Бит/(Пиксели*Кадры) : 0.405
    Размер потока : 9, 39 Гбайт (88%)
    Заголовок : Gadkiy.Ya.2010.BDRip 1080p.Part 3
    Библиотека кодирования : x264 core 152 r2851M ba24899
    Настройки программы : cabac=1/ref=5/deblock=1: -3: -3/analyse=0x3: 0x113/me=umh/subme=11/psy=1/psy_rd=1.05: 0.05/mixed_ref=1/me_range=48/chroma_me=1/trellis=2/8x8dct=1/cqm=0/deadzone=21, 11/fast_pskip=0/chroma_qp_offset=-6/threads=6/lookahead_threads=4/sliced_threads=0/nr=0/decimate=0/interlaced=0/bluray_compat=0/constrained_intra=0/bframes=10/b_pyramid=2/b_adapt=2/b_bias=0/direct=3/weightb=1/open_gop=0/weightp=2/keyint=240/keyint_min=23/scenecut=40/intra_refresh=0/rc_lookahead=50/rc=2pass/mbtree=0/bitrate=15000/ratetol=1.0/qcomp=0.60/qpmin=0/qpmax=69/qpstep=4/cplxblur=20.0/qblur=0.5/vbv_maxrate=50000/vbv_bufsize=62500/nal_hrd=none/filler=0/ip_ratio=1.40/pb_ratio=1.30/aq=3: 0.80
    Язык : English
    Default : Да
    Forced : Нет
    Аудио #1
    Идентификатор : 2
    Формат : AC-3
    Формат/Информация : Audio Coding 3
    Коммерческое название : Dolby Digital
    Идентификатор кодека : A_AC3
    Продолжительность : 1 ч. 29 м.
    Вид битрейта : Постоянный
    Битрейт : 448 Кбит/сек
    Каналы : 6 каналов
    ChannelLayout : L R C LFE Ls Rs
    Частота : 48, 0 КГц
    Частота кадров : 31, 250 кадров/сек (1536 SPF)
    Метод сжатия : С потерями
    Размер потока : 287 Мбайт (3%)
    Заголовок : License
    Язык : Russian
    ServiceKind/String : Complete Main
    Default : Нет
    Forced : Нет
    Аудио #2
    Идентификатор : 3
    Формат : DTS
    Формат/Информация : Digital Theater Systems
    Идентификатор кодека : A_DTS
    Продолжительность : 1 ч. 29 м.
    Вид битрейта : Постоянный
    Битрейт : 1509 Кбит/сек
    Каналы : 6 каналов
    ChannelLayout : C L R Ls Rs LFE
    Частота : 48, 0 КГц
    Частота кадров : 93, 750 кадра/сек (512 SPF)
    Битовая глубина : 24 бит
    Метод сжатия : С потерями
    Размер потока : 968 Мбайт (9%)
    Заголовок : Original
    Язык : English
    Default : Нет
    Forced : Нет
    Текст #1
    Идентификатор : 4
    Формат : UTF-8
    Идентификатор кодека : S_TEXT/UTF8
    Идентификатор кодека/Информация : UTF-8 Plain Text
    Продолжительность : 1 ч. 10 м.
    Битрейт : 1 бит/сек
    ElementCount : 29
    Размер потока : 962 байт (0%)
    Заголовок : Forced
    Язык : Russian
    Default : Да
    Forced : Нет
    Текст #2
    Идентификатор : 5
    Формат : UTF-8
    Идентификатор кодека : S_TEXT/UTF8
    Идентификатор кодека/Информация : UTF-8 Plain Text
    Продолжительность : 1 ч. 20 м.
    Битрейт : 86 бит/сек
    ElementCount : 1083
    Размер потока : 51, 1 Кбайт (0%)
    Язык : Russian
    Default : Нет
    Forced : Нет
    Текст #3
    Идентификатор : 6
    Формат : UTF-8
    Идентификатор кодека : S_TEXT/UTF8
    Идентификатор кодека/Информация : UTF-8 Plain Text
    Продолжительность : 1 ч. 21 м.
    Битрейт : 108 бит/сек
    ElementCount : 1527
    Размер потока : 64, 7 Кбайт (0%)
    Язык : English
    Default : Нет
    Forced : Нет
    Меню
    00: 00: 00.000 : en: 00: 00: 00.000
    00: 03: 06.103 : en: 00: 03: 06.103
    00: 07: 57.977 : en: 00: 07: 57.977
    00: 11: 12.839 : en: 00: 11: 12.839
    00: 16: 15.766 : en: 00: 16: 15.766
    00: 20: 07.498 : en: 00: 20: 07.498
    00: 24: 07.988 : en: 00: 24: 07.988
    00: 28: 57.069 : en: 00: 28: 57.069
    00: 32: 55.348 : en: 00: 32: 55.348
    00: 39: 01.839 : en: 00: 39: 01.839
    00: 42: 44.187 : en: 00: 42: 44.187
    00: 46: 47.179 : en: 00: 46: 47.179
    00: 50: 55.636 : en: 00: 50: 55.636
    00: 56: 12.077 : en: 00: 56: 12.077
    01: 00: 02.265 : en: 01: 00: 02.265
    01: 05: 41.229 : en: 01: 05: 41.229
    01: 10: 14.544 : en: 01: 10: 14.544
    01: 14: 33.761 : en: 01: 14: 33.761
    01: 19: 29.723 : en: 01: 19: 29.723
    01: 21: 56.995 : en: 01: 21: 56.995

    Скриншоты для ознакомления



    Все одноименные релизы в Клубе
    Скриншоты для ознакомления



    Все одноименные релизы в Клубе
    Время раздачи: c 5 до 19 мск (до появления первых 3-5 скачавших)
    Год выпуска: 2010, 2013, 2017
    Производство: США, Франция/Universal Pictures, Illumination Entertainment
    Жанр: мультфильм, фэнтези, комедия, семейный,
    Режиссер: Пьер Коффан, Крис Рено, Кайл Балда, Эрик Гуильон

    Описание

    Гадкий снаружи, но добрый внутри Грю намерен, тем не менее, закрепить за собой статус главного архизлодея в мире, для чего он решает выкрасть Луну при помощи созданной им армии миньонов. Дело осложняют конкуренты, вставляющие высокотехнические палки в колеса, и семейные обстоятельства в виде трех сироток, о которых Грю вынужден заботиться.
    Продолжительность: 01: 34: 49/01: 37: 59/01: 29: 40
    Качество видео: BDRip 1080p
    Перевод: Дублированный
    Субтитры: русские, английские


    Онлайн видео Гадкий я (2010, 2013, 2017)


    Гадкий я (2010, 2013, 2017) / Despicable Me (2010, 2013, 2017) BDRip [H.264 / 1080p] [Трилогия] торрент скачать бесплатно
    Рейтинг →
     (голосов: 1, оценка 5/5, голосовать можно 1 раз )

    Другие торренты по теме:

  • Despicable Me / Гадкий Я 2.8.0k [Ru] скачать через торрент бесплатно
  • Гадкий я 3 / Despicable Me 3 (2017) TS [H.264] [MP4|720x304] [AD]
  • Гадкий Я / Despicable Me (2010) BDRip [H.265 / 1080p-LQ]
  • Гадкий Я 2 / Despicable Me 2 (2013) BDRip [H.265 / 1080p-LQ]
  • Гадкий я 3 / Despicable Me 3 (2017) WEBRip [H.264 / 1080p-LQ] [EN / EN Sub]
  • Гадкий я 3 / Despicable Me 3 (2017) WEBRip [AD]
  • Гадкий я 3 / Despicable Me 3 (2017) WEBRip [H.264 / 1080p-LQ] [AD]
  • Гадкий я 3 / Despicable Me 3 (2017) WEB-DL [H.264 / 1080p-LQ] [EN / EN Sub]


    • Комментарии (0):

      Информация

      Информация

        Посетители, находящиеся в группе Гости, не могут оставлять комментарии в данной новости.

        ↓ Меню




        Популярное

        Роботы-пожарные / Fire Robo (2016) WEB-DLRip [H.264 / 720p-LQ] (сезон 1, серии 1-26 из 26) [Обновляемая]

        (скачиваний: 6)
        Сергей Матвеев | Полный курс английского языка для лентяев (2016) [PDF]

        (скачиваний: 5)
        Серия книг | Образовательная манга (2010 - 2015) [PDF]

        (скачиваний: 4)
        Мариэтта Чудакова | Рассказы про Россию. 1861—1922 (2020) [EPUB]

        (скачиваний: 3)
        Алексей Марков | Хулиганская экономика. Финансовые рынки для хулиганов и их родителей (2019) [EPUB]

        (скачиваний: 3)
        Ляля Кандаурова | Как слушать музыку (2020) [EPUB]

        (скачиваний: 3)
        Александр Нилл | Воспитание свободой. Школа Саммерхилл (2020) [EPUB]

        (скачиваний: 3)
        Алена Зюрикова | Дзен в декрете, или Как не сойти с ума от счастья. Режим, сон, воспитание и хорошее настроение (2020) [EPUB]

        (скачиваний: 3)
        Жила-была царевна (2015-2019) WEB-DLRip [H.264 / 720p-LQ] (сезон 1, серии 1-18 из 26) [Обновляемая]

        (скачиваний: 3)
        Gekijouban KanColle | Kantai Collection Movie | Fleet Girls Collection: Movie Sequence| Коллекционная флотилия на большом экране [2016, Movie] BDrip 720p 10bit raw

        (скачиваний: 3)