Подписывайся на наш канал в Telegram https://t.me/torrentok и получи доступ к торрентам без ограничений!
.
Авторизация | Регистрация
bitok.xyz
Торрент скачать бесплатно Мультфильмы торрент скачать Семейка Аддамс / The Addams Family (2019) BDRip [H.264 / 1080p] торрент скачать бесплатно


    Семейка Аддамс / The Addams Family (2019) BDRip [H.264 / 1080p] торрент скачать бесплатно

    Дата: 18-02-2020, 05:00 | .torrent скачали: 1

    Семейка Аддамс / The Addams Family (2019) BDRip [H.264 / 1080p]Производство: Канада, США/Metro-Goldwyn-Mayer (MGM), Cinesite Animation
    Жанр: Мультфильм, ужасы, фэнтези, комедия, семейный
    Режиссер: Грег Тирнан, Конрад Вернон

    Актеры
    Оскар Айзек, Шарлиз Терон, Хлоя Грейс Морец, Финн Вулфард, Ник Кролл, Снуп Догг, Бетт Мидлер, Эллисон Джэнни, Мартин Шорт, Кэтрин О`Хара

    Описание

    Папа любит долгие прогулки в ненастную погоду. Мама считает, что черный цвет самый яркий. У детей кладбище - любимая площадка для игр. Бабушка выпивает пару капель яда перед сном. Вы все еще думаете, что ваши родственники странные? Знакомьтесь - семейка Аддамс.

    Возраст: 12+ (зрителям, достигшим 12 лет)
    Рейтинг MPAA: PG (рекомендуется присутствие родителей)
    Дата российской премьеры: 31 октября 2019
    Продолжительность: 01: 27: 01
    Качество видео: BDRip 1080p
    Перевод: Дублированный (iTunes)
    Субтитры: Русские, английские
    Видео: AVC/H.264, 1920x1036, ~11.7 mbps
    Аудио 1: AC3, 6 ch, 384 Kbps | Русский (DUB iTunes)
    Аудио 2: DTS, 6 ch, 1509 Kbps | Английский
    Общее
    Уникальный идентификатор : 254422993868192391776507970757737262079 (0xBF68161407CA9631B89E253A88B72BFF)
    Полное имя : D: MULTThe.Addams.Family.2019.1080p.BluRay.mkv
    Формат : Matroska
    Версия формата : Version 4
    Размер файла : 8, 25 Гбайт
    Продолжительность : 1 ч. 27 м.
    Общий поток : 13, 6 Мбит/сек
    Название фильма : The Addams Family (2019)
    Дата кодирования : UTC 2020-02-17 04: 17: 17
    Программа кодирования : mkvmerge v8.2.0 (\'World of Adventure\') 64bit
    Библиотека кодирования : libebml v1.3.1 + libmatroska v1.4.2
    Видео
    Идентификатор : 1
    Формат : AVC
    Формат/Информация : Advanced Video Codec
    Профиль формата : High@L4.1
    Настройки формата : CABAC/4 Ref Frames
    Параметр CABAC формата : Да
    Параметр RefFrames формата : 4 кадра
    Идентификатор кодека : V_MPEG4/ISO/AVC
    Продолжительность : 1 ч. 27 м.
    Битрейт : 11, 7 Мбит/сек
    Ширина : 1920 пикселей
    Высота : 1036 пикселей
    Соотношение сторон : 1, 85: 1
    Режим частоты кадров : Постоянный
    Частота кадров : 23, 976 (24000/1001) кадра/сек
    Цветовое пространство : YUV
    Субдискретизация насыщенности : 4: 2: 0
    Битовая глубина : 8 бит
    Тип развёртки : Прогрессивная
    Бит/(Пиксели*Кадры) : 0.245
    Размер потока : 7, 10 Гбайт (86%)
    Заголовок : potroks
    Библиотека кодирования : x264 core 157 r2958 57baac4
    Настройки программы : cabac=1/ref=4/deblock=1: -1: -1/analyse=0x3: 0x113/me=umh/subme=11/psy=1/psy_rd=1.00: 0.00/mixed_ref=1/me_range=48/chroma_me=1/trellis=2/8x8dct=1/cqm=0/deadzone=21, 11/fast_pskip=0/chroma_qp_offset=-2/threads=9/lookahead_threads=2/sliced_threads=0/nr=0/decimate=0/interlaced=0/bluray_compat=0/constrained_intra=0/bframes=10/b_pyramid=2/b_adapt=2/b_bias=0/direct=3/weightb=1/open_gop=0/weightp=2/keyint=240/keyint_min=23/scenecut=40/intra_refresh=0/rc_lookahead=100/rc=2pass/mbtree=0/bitrate=11676/ratetol=1.0/qcomp=0.70/qpmin=0/qpmax=69/qpstep=4/cplxblur=20.0/qblur=0.5/vbv_maxrate=50000/vbv_bufsize=62500/nal_hrd=none/filler=0/ip_ratio=1.40/pb_ratio=1.30/aq=1: 0.70
    Язык : Russian
    Default : Да
    Forced : Нет
    Аудио #1
    Идентификатор : 2
    Формат : AC-3
    Формат/Информация : Audio Coding 3
    Коммерческое название : Dolby Digital
    Идентификатор кодека : A_AC3
    Продолжительность : 1 ч. 27 м.
    Вид битрейта : Постоянный
    Битрейт : 384 Кбит/сек
    Каналы : 6 каналов
    ChannelLayout : L R C LFE Ls Rs
    Частота : 48, 0 КГц
    Частота кадров : 31, 250 кадров/сек (1536 SPF)
    Метод сжатия : С потерями
    Размер потока : 239 Мбайт (3%)
    Заголовок : Dub | DD 5.1 @ 384 kbps - iTunes
    Язык : Russian
    ServiceKind/String : Complete Main
    Default : Да
    Forced : Да
    Аудио #2
    Идентификатор : 3
    Формат : DTS
    Формат/Информация : Digital Theater Systems
    Идентификатор кодека : A_DTS
    Продолжительность : 1 ч. 27 м.
    Вид битрейта : Постоянный
    Битрейт : 1509 Кбит/сек
    Каналы : 6 каналов
    ChannelLayout : C L R Ls Rs LFE
    Частота : 48, 0 КГц
    Частота кадров : 93, 750 кадра/сек (512 SPF)
    Битовая глубина : 16 бит
    Метод сжатия : С потерями
    Размер потока : 939 Мбайт (11%)
    Заголовок : Original | DTS 5.1 @ 1509 kbps
    Язык : English
    Default : Нет
    Forced : Нет
    Текст #1
    Идентификатор : 4
    Формат : UTF-8
    Идентификатор кодека : S_TEXT/UTF8
    Идентификатор кодека/Информация : UTF-8 Plain Text
    Продолжительность : 1 ч. 19 м.
    Битрейт : 1 бит/сек
    ElementCount : 39
    Размер потока : 1, 16 Кбайт (0%)
    Заголовок : Forced
    Язык : Russian
    Default : Да
    Forced : Да
    Текст #2
    Идентификатор : 5
    Формат : UTF-8
    Идентификатор кодека : S_TEXT/UTF8
    Идентификатор кодека/Информация : UTF-8 Plain Text
    Продолжительность : 53 м. 24 с.
    Битрейт : 7 бит/сек
    ElementCount : 56
    Размер потока : 2, 81 Кбайт (0%)
    Заголовок : Songs
    Язык : Russian
    Default : Нет
    Forced : Нет
    Текст #3
    Идентификатор : 6
    Формат : UTF-8
    Идентификатор кодека : S_TEXT/UTF8
    Идентификатор кодека/Информация : UTF-8 Plain Text
    Продолжительность : 1 ч. 19 м.
    Битрейт : 105 бит/сек
    ElementCount : 1221
    Размер потока : 61, 5 Кбайт (0%)
    Заголовок : iTunes
    Язык : Russian
    Default : Нет
    Forced : Нет
    Текст #4
    Идентификатор : 7
    Формат : UTF-8
    Идентификатор кодека : S_TEXT/UTF8
    Идентификатор кодека/Информация : UTF-8 Plain Text
    Продолжительность : 1 ч. 25 м.
    Битрейт : 69 бит/сек
    ElementCount : 1436
    Размер потока : 43, 3 Кбайт (0%)
    Заголовок : Full
    Язык : English
    Default : Нет
    Forced : Нет
    Текст #5
    Идентификатор : 8
    Формат : UTF-8
    Идентификатор кодека : S_TEXT/UTF8
    Идентификатор кодека/Информация : UTF-8 Plain Text
    Продолжительность : 1 ч. 25 м.
    Битрейт : 84 бит/сек
    ElementCount : 1746
    Размер потока : 52, 9 Кбайт (0%)
    Заголовок : SDH
    Язык : English
    Default : Нет
    Forced : Нет
    Меню
    00: 00: 00.000 : en: Chapter 01
    00: 05: 08.557 : en: Chapter 02
    00: 10: 35.465 : en: Chapter 03
    00: 15: 46.946 : en: Chapter 04
    00: 19: 35.257 : en: Chapter 05
    00: 25: 14.804 : en: Chapter 06
    00: 29: 25.761 : en: Chapter 07
    00: 34: 20.556 : en: Chapter 08
    00: 39: 46.967 : en: Chapter 09
    00: 45: 01.739 : en: Chapter 10
    00: 49: 07.610 : en: Chapter 11
    00: 53: 40.925 : en: Chapter 12
    00: 56: 36.559 : en: Chapter 13
    01: 00: 01.014 : en: Chapter 14
    01: 03: 45.947 : en: Chapter 15
    01: 06: 02.458 : en: Chapter 16
    01: 10: 54.582 : en: Chapter 17
    01: 18: 09.475 : en: Chapter 18
    01: 20: 21.314 : en: Chapter 19
    01: 21: 11.323 : en: Chapter 20

    Скриншоты для ознакомления



    Все одноименные релизы в Клубе
    Время раздачи: с 5 до 19 мск

    Онлайн видео Семейка Аддамс


    Семейка Аддамс / The Addams Family (2019) BDRip [H.264 / 1080p] торрент скачать бесплатно
    Рейтинг →
     (голосов: 1, оценка 4/5, голосовать можно 1 раз )

    Другие торренты по теме:

  • Семейка Аддамс. Дилогия. / The Addams Family. 2-Movie Set. (1991 / 1993) HDTVRip [H.264] [MP4|1024x576]
  • Семейка Аддамс. Дилогия. / The Addams Family. 2-Movie Set. (1991 / 1993) HDTVRip [H.264] [MP4|1280x720]
  • Семейка Аддамс / The Addams Family (2019) WEB-DLRip [H.264]
  • Семейка Аддамс / The Addams Family (2019) WEB-DLRip
  • Семейка Аддамс / The Addams Family (2019) WEB-DL [H.264 / 1080p-LQ]
  • Семейка Аддамс / The Addams Family (2019) AC3 5.1 [hand made]
  • Семейка Аддамс / The Addams Family (2019) WEB-DLRip [H.264] (Online cin)
  • Семейка Аддамс / The Addams Family (2019) BDRip [H.264 / 1080p] [PR]


    • Комментарии (0):

      Информация

      Информация

        Посетители, находящиеся в группе Гости, не могут оставлять комментарии в данной новости.