Подписывайся на наш канал в Telegram https://t.me/torrentok и получи доступ к торрентам без ограничений!
.
Авторизация | Регистрация
bitok.xyz
Торрент скачать бесплатно Мультфильмы торрент скачать Семейка Аддамс / The Addams Family (2019) BDRip [H.264 / 720p] торрент скачать бесплатно

    Семейка Аддамс / The Addams Family (2019) BDRip [H.264 / 720p] торрент скачать бесплатно

    Дата: 18-02-2020, 05:00 | .torrent скачали: 0

    Семейка Аддамс / The Addams Family (2019) BDRip [H.264 / 720p]Производство: Канада, США/Metro-Goldwyn-Mayer (MGM), Cinesite Animation
    Жанр: Мультфильм, ужасы, фэнтези, комедия, семейный
    Режиссер: Грег Тирнан, Конрад Вернон

    Актеры
    Оскар Айзек, Шарлиз Терон, Хлоя Грейс Морец, Финн Вулфард, Ник Кролл, Снуп Догг, Бетт Мидлер, Эллисон Джэнни, Мартин Шорт, Кэтрин О`Хара

    Описание

    Папа любит долгие прогулки в ненастную погоду. Мама считает, что черный цвет самый яркий. У детей кладбище - любимая площадка для игр. Бабушка выпивает пару капель яда перед сном. Вы все еще думаете, что ваши родственники странные? Знакомьтесь - семейка Аддамс.

    Возраст: 12+ (зрителям, достигшим 12 лет)
    Рейтинг MPAA: PG (рекомендуется присутствие родителей)
    Дата российской премьеры: 31 октября 2019
    Продолжительность: 01: 27: 01
    Качество видео: BDRip 720p
    Перевод: Дублированный (iTunes)
    Субтитры: Русские, английские
    Видео: AVC/H.264, 1280x690, ~7113 Kbps
    Аудио 1: AC3, 6 ch, 384 Kbps | Русский (DUB)
    Аудио 2: AC3, 6 ch, 640 Kbps | Английский
    Общее
    Уникальный идентификатор : 195526363771456552290885099591465086948 (0x931902051BF38CA4B0B5FD297C66AFE4)
    Полное имя : D: MULTThe.Addams.Family.2019.BDRip.720p.mkv
    Формат : Matroska
    Версия формата : Version 4
    Размер файла : 4, 95 Гбайт
    Продолжительность : 1 ч. 27 м.
    Общий поток : 8139 Кбит/сек
    Название фильма : The.Addams.Family.2019 from селезень
    Дата кодирования : UTC 2020-02-17 01: 38: 32
    Программа кодирования : mkvmerge v8.2.0 (\'World of Adventure\') 64bit
    Библиотека кодирования : libebml v1.3.1 + libmatroska v1.4.2
    Видео
    Идентификатор : 1
    Формат : AVC
    Формат/Информация : Advanced Video Codec
    Профиль формата : High@L4.1
    Настройки формата : CABAC/9 Ref Frames
    Параметр CABAC формата : Да
    Параметр RefFrames формата : 9 кадров
    Идентификатор кодека : V_MPEG4/ISO/AVC
    Продолжительность : 1 ч. 27 м.
    Битрейт : 7113 Кбит/сек
    Ширина : 1280 пикселей
    Высота : 690 пикселей
    Соотношение сторон : 1, 85: 1
    Режим частоты кадров : Постоянный
    Частота кадров : 23, 976 (24000/1001) кадра/сек
    Цветовое пространство : YUV
    Субдискретизация насыщенности : 4: 2: 0
    Битовая глубина : 8 бит
    Тип развёртки : Прогрессивная
    Бит/(Пиксели*Кадры) : 0.336
    Размер потока : 4, 32 Гбайт (87%)
    Заголовок : playHD
    Библиотека кодирования : x264 core 144 r2525 40bb568
    Настройки программы : cabac=1/ref=9/deblock=1: -3: -3/analyse=0x3: 0x133/me=umh/subme=10/psy=1/psy_rd=1.00: 0.00/mixed_ref=1/me_range=32/chroma_me=1/trellis=2/8x8dct=1/cqm=0/deadzone=21, 11/fast_pskip=0/chroma_qp_offset=-2/threads=12/lookahead_threads=2/sliced_threads=0/nr=0/decimate=0/interlaced=0/bluray_compat=0/constrained_intra=0/bframes=8/b_pyramid=2/b_adapt=2/b_bias=0/direct=3/weightb=1/open_gop=0/weightp=2/keyint=250/keyint_min=23/scenecut=40/intra_refresh=0/rc=crf/mbtree=0/crf=13.8/qcomp=0.60/qpmin=0/qpmax=69/qpstep=4/ip_ratio=1.35/pb_ratio=1.25/aq=3: 0.88
    Язык : English
    Default : Да
    Forced : Нет
    Аудио #1
    Идентификатор : 2
    Формат : AC-3
    Формат/Информация : Audio Coding 3
    Коммерческое название : Dolby Digital
    Идентификатор кодека : A_AC3
    Продолжительность : 1 ч. 27 м.
    Вид битрейта : Постоянный
    Битрейт : 384 Кбит/сек
    Каналы : 6 каналов
    ChannelLayout : L R C LFE Ls Rs
    Частота : 48, 0 КГц
    Частота кадров : 31, 250 кадров/сек (1536 SPF)
    Метод сжатия : С потерями
    Размер потока : 239 Мбайт (5%)
    Заголовок : iTunes
    Язык : Russian
    ServiceKind/String : Complete Main
    Default : Да
    Forced : Да
    Аудио #2
    Идентификатор : 3
    Формат : AC-3
    Формат/Информация : Audio Coding 3
    Коммерческое название : Dolby Digital
    Идентификатор кодека : A_AC3
    Продолжительность : 1 ч. 27 м.
    Вид битрейта : Постоянный
    Битрейт : 640 Кбит/сек
    Каналы : 6 каналов
    ChannelLayout : L R C LFE Ls Rs
    Частота : 48, 0 КГц
    Частота кадров : 31, 250 кадров/сек (1536 SPF)
    Метод сжатия : С потерями
    Размер потока : 398 Мбайт (8%)
    Заголовок : Original
    Язык : English
    ServiceKind/String : Complete Main
    Default : Нет
    Forced : Нет
    Текст #1
    Идентификатор : 4
    Формат : UTF-8
    Идентификатор кодека : S_TEXT/UTF8
    Идентификатор кодека/Информация : UTF-8 Plain Text
    Продолжительность : 1 ч. 19 м.
    Битрейт : 1 бит/сек
    ElementCount : 39
    Размер потока : 1, 16 Кбайт (0%)
    Заголовок : Forced
    Язык : Russian
    Default : Да
    Forced : Да
    Текст #2
    Идентификатор : 5
    Формат : UTF-8
    Идентификатор кодека : S_TEXT/UTF8
    Идентификатор кодека/Информация : UTF-8 Plain Text
    Продолжительность : 1 ч. 19 м.
    Битрейт : 105 бит/сек
    ElementCount : 1221
    Размер потока : 61, 5 Кбайт (0%)
    Заголовок : Full
    Язык : Russian
    Default : Нет
    Forced : Нет
    Текст #3
    Идентификатор : 6
    Формат : UTF-8
    Идентификатор кодека : S_TEXT/UTF8
    Идентификатор кодека/Информация : UTF-8 Plain Text
    Продолжительность : 1 ч. 25 м.
    Битрейт : 69 бит/сек
    ElementCount : 1436
    Размер потока : 43, 3 Кбайт (0%)
    Заголовок : Full
    Язык : English
    Default : Нет
    Forced : Нет
    Меню
    00: 00: 00.000 : : Chapter 01
    00: 05: 08.558 : : Chapter 02
    00: 10: 35.468 : : Chapter 03
    00: 15: 46.946 : : Chapter 04
    00: 19: 35.257 : : Chapter 05
    00: 25: 14.805 : : Chapter 06
    00: 29: 25.764 : : Chapter 07
    00: 34: 20.558 : : Chapter 08
    00: 39: 46.968 : : Chapter 09
    00: 45: 01.741 : : Chapter 10
    00: 49: 07.611 : : Chapter 11
    00: 53: 40.926 : : Chapter 12
    00: 56: 36.560 : : Chapter 13
    01: 00: 01.014 : : Chapter 14
    01: 03: 45.947 : : Chapter 15
    01: 06: 02.458 : : Chapter 16
    01: 10: 54.584 : : Chapter 17
    01: 18: 09.476 : : Chapter 18
    01: 20: 21.316 : : Chapter 19
    01: 21: 11.325 : : Chapter 20

    Скриншоты для ознакомления



    Все одноименные релизы в Клубе
    Время раздачи: с 5 до 19 мск

    Онлайн видео Семейка Аддамс


    Семейка Аддамс / The Addams Family (2019) BDRip [H.264 / 720p] торрент скачать бесплатно
    Рейтинг →
     (голосов: 1, оценка 5/5, голосовать можно 1 раз )

    Другие торренты по теме:

  • Семейка Аддамс / The Addams Family (2019) DVD5 [Custom]
  • Семейка Аддамс / The Addams Family (2019) DVD9
  • Семейка Аддамс. Дилогия. / The Addams Family. 2-Movie Set. (1991 / 1993) HDTVRip [H.264] [MP4|1024x576]
  • Семейка Аддамс. Дилогия. / The Addams Family. 2-Movie Set. (1991 / 1993) HDTVRip [H.264] [MP4|1280x720]
  • Семейка Аддамс / The Addams Family (2019) WEB-DLRip [H.264]
  • Семейка Аддамс / The Addams Family (2019) WEB-DLRip
  • Семейка Аддамс / The Addams Family (2019) WEB-DL [H.264 / 1080p-LQ]
  • Семейка Аддамс / The Addams Family (2019) AC3 5.1 [hand made]


    • Комментарии (0):

      Информация

      Информация

        Посетители, находящиеся в группе Гости, не могут оставлять комментарии в данной новости.

        ↓ Меню




        Популярное

        Жила-была царевна (2015-2019) WEB-DLRip [H.264 / 720p-LQ] (сезон 1, серии 1-18 из 26) [Обновляемая]

        (скачиваний: 3)
        Сергей Матвеев | Полный курс английского языка для лентяев (2016) [PDF]

        (скачиваний: 3)
        Серия книг | Образовательная манга (2010 - 2015) [PDF]

        (скачиваний: 3)
        Gekijouban KanColle | Kantai Collection Movie | Fleet Girls Collection: Movie Sequence| Коллекционная флотилия на большом экране [2016, Movie] BDrip 720p 10bit raw

        (скачиваний: 3)
        Свинка Пеппа / Peppa Pig (2004-2012) SATRip (1-4 сезоны: 208 серий из 209) скачать через торрент бесплатно

        (скачиваний: 2)
        Соман Чайнани | Цикл: «Школа Добра и Зла» [5 книг] (2018-2019) [FB2]

        (скачиваний: 1)
        Ева Ибботсон | Агентство «Фантом в каждый дом» (2018) [FB2, EPUB]

        (скачиваний: 1)
        Teito Monogatari / Doomed Megalopolis / Столичная история [1991, OVA, 4 ep.] DVDRip raw +eng

        (скачиваний: 1)
        Эндрю Лумис | Искусное рисование (2015) [PDF]

        (скачиваний: 1)
        Джим Роджерс | Сделайте ваших детей успешными (2013) [PDF, EPUB] скачать через торрент бесплатно

        (скачиваний: 1)