ВАЖНО! Сайт скоро заблокируют! Подписывайся на наш канал в Telegram https://t.me/torrentok и получи доступ к торрентам без ограничений!
.
Авторизация | Регистрация
bitok.xyz
Торрент скачать бесплатно Мультфильмы торрент скачать Корпорация монстров / Monsters, Inc. (2001) BDRip [H.265 / 1080p] [10-bit] [Локализованная версия] торрент скачать бесплатно


    Корпорация монстров / Monsters, Inc. (2001) BDRip [H.265 / 1080p] [10-bit] [Локализованная версия] торрент скачать бесплатно

    Дата: 19-02-2020, 05:00 | .torrent скачали: 0

    Корпорация монстров / Monsters, Inc. (2001) BDRip [H.265 / 1080p] [10-bit] [Локализованная версия]Производство: США/Pixar Animation Studios, Walt Disney Pictures
    Жанр: мультфильм, фэнтези, комедия, приключения, семейный
    Режиссер: Пит Доктер, Дэвид Силверман, Ли Анкрич

    Описание
    Склизкий гад в сливном бачке, мохнатый зверь, похожий на чудовище из Аленького цветочка, гигантские мокрицы под кроватью — все они существуют на самом деле. Все, что им нужно — пугать детей, потому что из детских криков они получают электричество.

    Возраст: 6+ (зрителям, достигшим 6 лет)
    Рейтинг MPAA: G (нет возрастных ограничений)
    Релиз от: Mr. Fox (HEVC-CLUB)
    Продолжительность: 01: 32: 15
    Качество видео: BDRip
    Перевод: Дублированный (Лицензия)
    Язык озвучки Русский, украинский, английский
    Субтитры: Русские (форсированные, полные), английские (полные, SDH-Colored)
    Видео: HEVC/H.265, 1920x1040, ~7782 Kbps
    Аудио 1: AC3, 6 ch, 640 Kbps - Русский, дублированный
    Аудио 2: AC3, 6 ch, 448 Kbps - Украинский, дублированный
    Аудио 3: AC3, 6 ch, 640 Kbps - Английский
    Общее
    Уникальный идентификатор : 76237996044616029864044096336124223703 (0x395AE76926E0C9E034B341C7C434A0D7)
    Полное имя : R: Monsters, Inc. (2001) BDRip 1080p HEVC.mkv
    Формат : Matroska
    Версия формата : Version 4/Version 2
    Размер файла : 6, 13 Гбайт
    Продолжительность : 1 ч. 32 м.
    Общий поток : 9513 Кбит/сек
    Название фильма : Monsters, Inc. (2001)
    Дата кодирования : UTC 2020-02-15 18: 36: 54
    Программа кодирования : mkvmerge v43.0.0 (\'The Quartermaster\') 64-bit
    Библиотека кодирования : libebml v1.3.10 + libmatroska v1.5.2
    Обложка : Yes
    Attachments : cover.jpg
    Видео
    Идентификатор : 1
    Формат : HEVC
    Формат/Информация : High Efficiency Video Coding
    Профиль формата : Main10@L4.1@High
    Идентификатор кодека : V_MPEGH/ISO/HEVC
    Продолжительность : 1 ч. 32 м.
    Битрейт : 7782 Кбит/сек
    Ширина : 1920 пикселей
    Высота : 1040 пикселей
    Соотношение сторон : 1, 85: 1
    Режим частоты кадров : Постоянный
    Частота кадров : 23, 976 (23976/1000) кадра/сек
    Частота кадров в оригинале : 23, 976 (24000/1001) кадра/сек
    Цветовое пространство : YUV
    Субдискретизация насыщенности : 4: 2: 0
    Битовая глубина : 10 бит
    Бит/(Пиксели*Кадры) : 0.163
    Размер потока : 5, 01 Гбайт (82%)
    Библиотека кодирования : x265 3.2.1+1-b5c86a64bbbe: WindowsMSVC 192364 bit 10bit
    Настройки программы : cpuid=1111039/frame-threads=3/numa-pools=12/wpp/no-pmode/no-pme/no-psnr/no-ssim/log-level=2/input-csp=1/input-res=1920x1040/interlace=0/total-frames=122443/level-idc=41/high-tier=1/uhd-bd=0/ref=5/no-allow-non-conformance/no-repeat-t_heads/annexb/no-aud/no-hrd/info/hash=0/no-temporal-layers/open-gop/min-keyint=23/keyint=240/gop-lookahead=0/bframes=8/b-adapt=2/b-pyramid/bframe-bias=0/rc-lookahead=60/lookahead-slices=4/scenecut=40/radl=0/no-splice/no-intra-refresh/ctu=32/min-cu-size=8/rect/amp/max-tu-size=32/tu-inter-depth=4/tu-intra-depth=4/limit-tu=1/rdoq-level=2/dynamic-rd=0.00/no-ssim-rd/signhide/no-tskip/nr-intra=0/nr-inter=0/no-constrained-intra/no-strong-intra-smoothing/max-merge=4/limit-refs=2/limit-modes/me=3/subme=7/merange=57/temporal-mvp/no-hme/weightp/weightb/no-analyze-src-pics/deblock=-3: -3/no-sao/no-sao-non-deblock/rd=6/selective-sao=0/no-early-skip/no-rskip/no-fast-intra/no-tskip-fast/no-cu-lossless/no-b-intra/no-splitrd-skip/rdpenalty=0/psy-rd=2.00/psy-rdoq=1.00/no-rd-refine/no-lossless/cbqpoffs=0/crqpoffs=0/rc=crf/crf=19.0/qcomp=0.60/qpstep=4/stats-write=0/stats-read=0/vbv-maxrate=50000/vbv-bufsize=50000/vbv-init=0.9/crf-max=0.0/crf-min=0.0/ipratio=1.40/pbratio=1.30/aq-mode=1/aq-strength=1.00/no-cutree/zone-count=0/no-strict-cbr/qg-size=32/no-rc-grain/qpmax=69/qpmin=0/no-const-vbv/sar=1/overscan=0/videoformat=5/range=0/colorprim=1/transfer=1/colormatrix=1/chromaloc=0/display-window=0/cll=0, 0/min-luma=0/max-luma=1023/log2-max-poc-lsb=8/vui-timing-info/vui-hrd-info/slices=1/no-opt-qp-pps/no-opt-ref-list-length-pps/no-multi-pass-opt-rps/scenecut-bias=0.05/no-opt-cu-delta-qp/no-aq-motion/no-hdr/no-hdr-opt/no-dhdr10-opt/no-idr-recovery-sei/analysis-reuse-level=5/scale-factor=0/refine-intra=0/refine-inter=0/refine-mv=1/refine-ctu-distortion=0/no-limit-sao/ctu-info=0/no-lowpass-dct/refine-analysis-type=0/copy-pic=1/max-ausize-factor=1.0/no-dynamic-refine/no-single-sei/no-hevc-aq/no-svt/no-field/qp-adaptation-range=1.00
    Default : Да
    Forced : Нет
    Цветовой диапазон : Limited
    Основные цвета : BT.709
    Характеристики трансфера : BT.709
    Коэффициенты матрицы : BT.709
    Аудио #1
    Идентификатор : 2
    Формат : AC-3
    Формат/Информация : Audio Coding 3
    Идентификатор кодека : A_AC3
    Продолжительность : 1 ч. 32 м.
    Вид битрейта : Постоянный
    Битрейт : 640 Кбит/сек
    Каналы : 6 каналов
    Расположение каналов : Front: L C R, Side: L R, LFE
    Частота : 48, 0 КГц
    Частота кадров : 31, 250 кадров/сек (1536 SPF)
    Битовая глубина : 16 бит
    Метод сжатия : С потерями
    Размер потока : 422 Мбайт (7%)
    Заголовок : Дубляж
    Язык : Russian
    ServiceKind/String : Complete Main
    Default : Да
    Forced : Нет
    Аудио #2
    Идентификатор : 3
    Формат : AC-3
    Формат/Информация : Audio Coding 3
    Идентификатор кодека : A_AC3
    Продолжительность : 1 ч. 32 м.
    Вид битрейта : Постоянный
    Битрейт : 448 Кбит/сек
    Каналы : 6 каналов
    Расположение каналов : Front: L C R, Side: L R, LFE
    Частота : 48, 0 КГц
    Частота кадров : 31, 250 кадров/сек (1536 SPF)
    Битовая глубина : 16 бит
    Метод сжатия : С потерями
    Размер потока : 296 Мбайт (5%)
    Заголовок : Дубляж
    Язык : Ukrainian
    ServiceKind/String : Complete Main
    Default : Нет
    Forced : Нет
    Аудио #3
    Идентификатор : 4
    Формат : AC-3
    Формат/Информация : Audio Coding 3
    Идентификатор кодека : A_AC3
    Продолжительность : 1 ч. 32 м.
    Вид битрейта : Постоянный
    Битрейт : 640 Кбит/сек
    Каналы : 6 каналов
    Расположение каналов : Front: L C R, Side: L R, LFE
    Частота : 48, 0 КГц
    Частота кадров : 31, 250 кадров/сек (1536 SPF)
    Битовая глубина : 16 бит
    Метод сжатия : С потерями
    Размер потока : 422 Мбайт (7%)
    Заголовок : Original
    Язык : English
    ServiceKind/String : Complete Main
    Default : Нет
    Forced : Нет
    Текст #1
    Идентификатор : 5
    Формат : UTF-8
    Идентификатор кодека : S_TEXT/UTF8
    Идентификатор кодека/Информация : UTF-8 Plain Text
    Продолжительность : 1 ч. 15 м.
    Битрейт : 0 бит/сек
    ElementCount : 4
    Размер потока : 220 байт (0%)
    Заголовок : Forced
    Язык : Russian
    Default : Нет
    Forced : Нет
    Текст #2
    Идентификатор : 6
    Формат : UTF-8
    Идентификатор кодека : S_TEXT/UTF8
    Идентификатор кодека/Информация : UTF-8 Plain Text
    Продолжительность : 1 ч. 24 м.
    Битрейт : 75 бит/сек
    ElementCount : 989
    Размер потока : 46, 8 Кбайт (0%)
    Заголовок : Blu-ray CEE
    Язык : Russian
    Default : Нет
    Forced : Нет
    Текст #3
    Идентификатор : 7
    Формат : UTF-8
    Идентификатор кодека : S_TEXT/UTF8
    Идентификатор кодека/Информация : UTF-8 Plain Text
    Продолжительность : 1 ч. 23 м.
    Битрейт : 61 бит/сек
    ElementCount : 1094
    Размер потока : 37, 3 Кбайт (0%)
    Заголовок : Full
    Язык : English
    Default : Нет
    Forced : Нет
    Текст #4
    Идентификатор : 8
    Формат : UTF-8
    Идентификатор кодека : S_TEXT/UTF8
    Идентификатор кодека/Информация : UTF-8 Plain Text
    Продолжительность : 1 ч. 27 м.
    Битрейт : 110 бит/сек
    ElementCount : 2378
    Размер потока : 70, 6 Кбайт (0%)
    Заголовок : SDH-Colored
    Язык : English
    Default : Нет
    Forced : Нет
    Меню
    00: 00: 00.000 : en: (01)00: 00: 00: 000
    00: 01: 33.092 : en: (02)00: 01: 33: 092
    00: 03: 07.604 : en: (03)00: 03: 07: 604
    00: 04: 51.124 : en: (04)00: 04: 51: 124
    00: 07: 16.936 : en: (05)00: 07: 16: 936
    00: 09: 11.509 : en: (06)00: 09: 11: 509
    00: 10: 43.601 : en: (07)00: 10: 43: 601
    00: 11: 53.796 : en: (08)00: 11: 53: 796
    00: 17: 25.794 : en: (09)00: 17: 25: 794
    00: 20: 06.079 : en: (10)00: 20: 06: 079
    00: 22: 03.780 : en: (11)00: 22: 03: 780
    00: 25: 48.421 : en: (12)00: 25: 48: 421
    00: 28: 34.963 : en: (13)00: 28: 34: 963
    00: 31: 06.489 : en: (14)00: 31: 06: 489
    00: 34: 49.962 : en: (15)00: 34: 49: 962
    00: 36: 55.630 : en: (16)00: 36: 55: 630
    00: 38: 50.286 : en: (17)00: 38: 50: 286
    00: 40: 27.883 : en: (18)00: 40: 27: 883
    00: 43: 34.278 : en: (19)00: 43: 34: 278
    00: 45: 29.726 : en: (20)00: 45: 29: 726
    00: 48: 07.426 : en: (21)00: 48: 07: 426
    00: 50: 37.159 : en: (22)00: 50: 37: 159
    00: 54: 41.277 : en: (23)00: 54: 41: 277
    00: 57: 29.445 : en: (24)00: 57: 29: 445
    01: 03: 42.026 : en: (25)01: 03: 42: 026
    01: 06: 25.022 : en: (26)01: 06: 25: 022
    01: 07: 26.375 : en: (27)01: 07: 26: 375
    01: 13: 52.135 : en: (28)01: 13: 52: 135
    01: 17: 49.581 : en: (29)01: 17: 49: 581
    01: 21: 24.921 : en: (30)01: 21: 24: 921
    01: 24: 07.959 : en: (31)01: 24: 07: 959
    01: 25: 06.226 : en: (32)01: 25: 06: 226
    01: 32: 15.571 : en: (33)01: 32: 15: 571


    Онлайн видео Корпорация монстров


    Корпорация монстров / Monsters, Inc. (2001) BDRip [H.265 / 1080p] [10-bit] [Локализованная версия] торрент скачать бесплатно
    Рейтинг →
     (голосов: 1, оценка 3/5, голосовать можно 1 раз )

    Другие торренты по теме:

  • Корпорация монстров.Университет монстров.Дилогия / Monsters, Inc. Monsters University (2001-2013) BDRip [H.264 / 720p]
  • Корпорация монстров: Дилогия / Monsters, Inc.: Dilogy (2001-2013) HDRip [H.264] [MP4|960х528] скачать через торрент бесплатно
  • Корпорация монстров / Monsters, Inc. (2001) [H.264] BDRip
  • Корпорация монстров / Monsters, Inc. (2001) BDRip [H.265 / 1080p] [10-bit]
  • Корпорация монстров / Monsters, Inc. (2001) UHD BDRemux [H.265 / 2160p] [4K, HDR, 10-bit]


    • Комментарии (0):

      Информация

      Информация

        Посетители, находящиеся в группе Гости, не могут оставлять комментарии в данной новости.

        ↓ Меню




        Популярное

        Роботы-пожарные / Fire Robo (2016) WEB-DLRip [H.264 / 720p-LQ] (сезон 1, серии 1-26 из 26) [Обновляемая]

        (скачиваний: 6)
        Сергей Матвеев | Полный курс английского языка для лентяев (2016) [PDF]

        (скачиваний: 5)
        Серия книг | Образовательная манга (2010 - 2015) [PDF]

        (скачиваний: 4)
        Жила-была царевна (2015-2019) WEB-DLRip [H.264 / 720p-LQ] (сезон 1, серии 1-18 из 26) [Обновляемая]

        (скачиваний: 3)
        Алена Зюрикова | Дзен в декрете, или Как не сойти с ума от счастья. Режим, сон, воспитание и хорошее настроение (2020) [EPUB]

        (скачиваний: 3)
        Лея Уотерс | Переключение на силу. Как научиться видеть в детях сильные стороны, чтобы помочь им расцвести (2019) [EPUB]

        (скачиваний: 3)
        Александр Нилл | Воспитание свободой. Школа Саммерхилл (2020) [EPUB]

        (скачиваний: 3)
        Алексей Марков | Хулиганская экономика. Финансовые рынки для хулиганов и их родителей (2019) [EPUB]

        (скачиваний: 3)
        Gekijouban KanColle | Kantai Collection Movie | Fleet Girls Collection: Movie Sequence| Коллекционная флотилия на большом экране [2016, Movie] BDrip 720p 10bit raw

        (скачиваний: 3)
        Роберт Кийосаки | Богатый папа, бедный папа для подростков (2014) [PDF, FB2]

        (скачиваний: 3)