Подписывайся на наш канал в Telegram https://t.me/torrentok и получи доступ к торрентам без ограничений!
.
Авторизация | Регистрация
bitok.xyz
Торрент скачать бесплатно Мультфильмы торрент скачать Без ошейника (1995) SATRip торрент скачать бесплатно


    Без ошейника (1995) SATRip торрент скачать бесплатно

    Дата: 19-02-2020, 05:00 | .torrent скачали: 0

    Без ошейника (1995) SATRipПроизводство: Украина/Одесская к/ст
    Жанр: Семейный
    Режиссер: Радомир Василевский

    Актеры
    Артур Майн, Александр Ильин, Любовь Руднева, Наталья Бузько, Марина Дюжева, Аристарх Ливанов, Владимир Носик, Виктор Павлов, Наталья Позднякова, Валентина Салтовская

    Описание

    Семиклассник Олег влюбился в Лину, а его верный друг пес Мотя — в Линину подругу — догиню Геру.
    Однажды, обидевшись на хозяина, Мотя исчезает. Олег, осознав свою ошибку, устремляется на поиски своего воспитанника.

    Возраст: 0+ (для любой зрительской аудитории)
    Продолжительность: 01: 26: 15
    Качество видео: SATRip
    Субтитры: Отсутствуют
    Язык озвучки: Русский
    Видео: Xvid, 704x528 (4: 3), ~2100 Kbps
    Аудио: MP3, 2 ch, 128 Kbps
    Общее
    Полное имя : G: Без ошейника (1995).avi
    Формат : AVI
    Формат/Информация : Audio Video Interleave
    Размер файла : 1, 35 Гбайт
    Продолжительность : 1 ч. 26 м.
    Общий поток : 2240 Кбит/сек
    Видео
    Идентификатор : 0
    Формат : MPEG-4 Visual
    Профиль формата : Advanced Simple@L5
    Настройки формата : BVOP1
    Параметр BVOP формата : 1
    Параметр QPel формата : Нет
    Параметр GMC формата : Без точки перехода
    Параметр матрицы формата : Default (H.263)
    Идентификатор кодека : XVID
    Идентификатор кодека/Подсказка : XviD
    Продолжительность : 1 ч. 26 м.
    Битрейт : 2099 Кбит/сек
    Ширина : 704 пикселя
    Высота : 528 пикселей
    Соотношение сторон : 4: 3
    Частота кадров : 25, 000 кадров/сек
    Цветовое пространство : YUV
    Субдискретизация насыщенности : 4: 2: 0
    Битовая глубина : 8 бит
    Тип развёртки : Прогрессивная
    Метод сжатия : С потерями
    Бит/(Пиксели*Кадры) : 0.226
    Размер потока : 1, 26 Гбайт (94%)
    Библиотека кодирования : XviD 1.2.1 (UTC 2008-12-04)
    Аудио
    Идентификатор : 1
    Формат : MPEG Audio
    Версия формата : Version 1
    Профиль формата : Layer 3
    Идентификатор кодека : 55
    Идентификатор кодека/Подсказка : MP3
    Продолжительность : 1 ч. 26 м.
    Вид битрейта : Постоянный
    Битрейт : 128 Кбит/сек
    Каналы : 2 канала
    Частота : 48, 0 КГц
    Метод сжатия : С потерями
    Размер потока : 79, 0 Мбайт (6%)
    Выравнивание : Соединение по промежуткам
    Продолжительность промежутка : 24 мс. (0, 60 видеокадр)

    Скриншоты для ознакомления



    Все одноименные релизы в Клубе
    Время раздачи: 24/7 (круглосуточно) (до появления первых 3-5 скачавших)

    Онлайн видео Михаил Липскеров


    Без ошейника (1995) SATRip торрент скачать бесплатно
    Рейтинг →
     (голосов: 1, оценка 3/5, голосовать можно 1 раз )

    Другие торренты по теме:



      Комментарии (0):

      Информация

      Информация

        Посетители, находящиеся в группе Гости, не могут оставлять комментарии в данной новости.

        ↓ Меню




        Популярное