ВАЖНО! Сайт скоро заблокируют! Подписывайся на наш канал в Telegram https://t.me/torrentok и получи доступ к торрентам без ограничений!
.
Авторизация | Регистрация
bitok.xyz
Торрент скачать бесплатно Мультфильмы торрент скачать Семейка Аддамс / The Addams Family (2019) BDRip [H.264 / 720p-LQ] торрент скачать бесплатно


    Семейка Аддамс / The Addams Family (2019) BDRip [H.264 / 720p-LQ] торрент скачать бесплатно

    Дата: 19-02-2020, 05:00 | .torrent скачали: 1

    Семейка Аддамс / The Addams Family (2019) BDRip [H.264 / 720p-LQ]Производство: Канада, США/Metro-Goldwyn-Mayer (MGM), Cinesite Animation, BRON Studios
    Жанр: Мультфильм, ужасы, фэнтези, комедия, семейный
    Режиссер: Грег Тирнан, Конрад Вернон

    Актеры
    Оскар Айзек, Шарлиз Терон, Хлоя Грейс Морец, Финн Вулфард, Ник Кролл, Снуп Догг, Бетт Мидлер, Эллисон Джэнни, Мартин Шорт, Кэтрин О`Хара

    Описание

    Папа любит долгие прогулки в ненастную погоду. Мама считает, что черный цвет самый яркий. У детей кладбище — любимая площадка для игр. Бабушка выпивает пару капель яда перед сном. Вы все еще думаете, что ваши родственники странные? Знакомьтесь — семейка Аддамс.

    Возраст: 12+ (зрителям, достигшим 12 лет)
    Рейтинг MPAA: PG (рекомендуется присутствие родителей)
    Дата мировой премьеры: 10 октября 2019
    Дата российской премьеры: 31 октября 2019, UPI
    Релиз от: NNMClub
    Продолжительность: 01: 27: 01
    Качество видео: BDRip
    Язык озвучки: Русский, украинский, английский
    Перевод: Дублированный, авторский
    Субтитры: Русские (Forced, Songs, Full), украинские (Forced), английские (Full)
    Видео: AVC/H.264, 1280x690, ~3400 Kbps
    Аудио 1: AC3, 6 ch, 384 Kbps - Русский дубляж (iTunes)
    Аудио 2: AC3, 6 ch, 384 Kbps - Русский авторский (М. Яроцкий)
    Аудио 3: AC3, 2 ch, 192 Kbps - Украинский дубляж (iTunes)
    Аудио 4: AC3, 6 ch, 384 Kbps - Английский (Оригинал)General
    Unique ID : 198290872967106569211796699031654996744 (0x952D6ED8BBFDCEE72E8E127E21BD9B08)
    Complete name : The.Addams.Family.2019.BDRip.720p-LQ.NNMClub.mkv
    Format : Matroska
    Format version : Version 4
    File size : 2.89 GiB
    Duration : 1 h 27 min
    Overall bit rate : 4 748 kb/s
    Movie name : The.Addams.Family.2019.BDRip.720p.NNMClub
    Encoded date : UTC 2020-02-18 08: 24: 41
    Writing application : mkvmerge v43.0.0 (\'The Quartermaster\') 64-bit
    Writing library : libebml v1.3.10 + libmatroska v1.5.2
    Video
    ID : 1
    Format : AVC
    Format/Info : Advanced Video Codec
    Format profile : High@L4.1
    Format settings : CABAC/9 Ref Frames
    Format settings, CABAC : Yes
    Format settings, Reference : 9 frames
    Codec ID : V_MPEG4/ISO/AVC
    Duration : 1 h 27 min
    Bit rate : 3 401 kb/s
    Width : 1 280 pixels
    Height : 690 pixels
    Display aspect ratio : 1.85: 1
    Frame rate mode : Constant
    Frame rate : 23.976 (24000/1001) FPS
    Color space : YUV
    Chroma subsampling : 4: 2: 0
    Bit depth : 8 bits
    Scan type : Progressive
    Bits/(Pixel*Frame) : 0.161
    Stream size : 2.07 GiB (72%)
    Title : The.Addams.Family.2019.BDRip.720p.NNMClub
    Writing library : x264 core 159 r2991 1771b55
    Encoding settings : cabac=1/ref=9/deblock=1: -1: -1/analyse=0x3: 0x133/me=umh/subme=11/psy=1/psy_rd=1.05: 0.00/mixed_ref=1/me_range=32/chroma_me=1/trellis=2/8x8dct=1/cqm=0/deadzone=21, 11/fast_pskip=0/chroma_qp_offset=-2/threads=4/lookahead_threads=1/sliced_threads=0/nr=0/decimate=1/interlaced=0/bluray_compat=0/constrained_intra=0/bframes=11/b_pyramid=2/b_adapt=2/b_bias=0/direct=1/weightb=1/open_gop=0/weightp=2/keyint=240/keyint_min=23/scenecut=40/intra_refresh=0/rc_lookahead=60/rc=crf/mbtree=0/crf=17.4/qcomp=0.70/qpmin=0/qpmax=69/qpstep=4/vbv_maxrate=50000/vbv_bufsize=62500/crf_max=0.0/nal_hrd=none/filler=0/ip_ratio=1.40/pb_ratio=1.30/aq=1: 1.00
    Language : English
    Default : Yes
    Forced : No
    Audio #1
    ID : 2
    Format : AC-3
    Format/Info : Audio Coding 3
    Commercial name : Dolby Digital
    Codec ID : A_AC3
    Duration : 1 h 27 min
    Bit rate mode : Constant
    Bit rate : 384 kb/s
    Channel(s) : 6 channels
    Channel layout : L R C LFE Ls Rs
    Sampling rate : 48.0 kHz
    Frame rate : 31.250 FPS (1536 SPF)
    Compression mode : Lossy
    Stream size : 239 MiB (8%)
    Title : DUB-iTunes
    Language : Russian
    Service kind : Complete Main
    Default : No
    Forced : No
    Audio #2
    ID : 3
    Format : AC-3
    Format/Info : Audio Coding 3
    Commercial name : Dolby Digital
    Codec ID : A_AC3
    Duration : 1 h 27 min
    Bit rate mode : Constant
    Bit rate : 384 kb/s
    Channel(s) : 6 channels
    Channel layout : L R C LFE Ls Rs
    Sampling rate : 48.0 kHz
    Frame rate : 31.250 FPS (1536 SPF)
    Compression mode : Lossy
    Stream size : 239 MiB (8%)
    Title : AVO- Kyberpunk
    Language : Russian
    Service kind : Complete Main
    Default : No
    Forced : No
    Audio #3
    ID : 4
    Format : AC-3
    Format/Info : Audio Coding 3
    Commercial name : Dolby Digital
    Codec ID : A_AC3
    Duration : 1 h 27 min
    Bit rate mode : Constant
    Bit rate : 192 kb/s
    Channel(s) : 2 channels
    Channel layout : L R
    Sampling rate : 48.0 kHz
    Frame rate : 31.250 FPS (1536 SPF)
    Compression mode : Lossy
    Stream size : 119 MiB (4%)
    Title : DUB-iTunes
    Language : Ukrainian
    Service kind : Complete Main
    Default : No
    Forced : No
    Audio #4
    ID : 5
    Format : AC-3
    Format/Info : Audio Coding 3
    Commercial name : Dolby Digital
    Codec ID : A_AC3
    Duration : 1 h 27 min
    Bit rate mode : Constant
    Bit rate : 384 kb/s
    Channel(s) : 6 channels
    Channel layout : L R C LFE Ls Rs
    Sampling rate : 48.0 kHz
    Frame rate : 31.250 FPS (1536 SPF)
    Compression mode : Lossy
    Stream size : 239 MiB (8%)
    Title : Original
    Language : English
    Service kind : Complete Main
    Default : No
    Forced : No
    Text #1
    ID : 6
    Format : UTF-8
    Codec ID : S_TEXT/UTF8
    Codec ID/Info : UTF-8 Plain Text
    Duration : 1 h 19 min
    Bit rate : 1 b/s
    Count of elements : 39
    Stream size : 1.16 KiB (0%)
    Title : FORCED
    Language : Russian
    Default : No
    Forced : No
    Text #2
    ID : 7
    Format : UTF-8
    Codec ID : S_TEXT/UTF8
    Codec ID/Info : UTF-8 Plain Text
    Duration : 53 min 24 s
    Bit rate : 7 b/s
    Count of elements : 56
    Stream size : 2.81 KiB (0%)
    Title : Songs (Kyberpunk)
    Language : Russian
    Default : No
    Forced : No
    Text #3
    ID : 8
    Format : UTF-8
    Codec ID : S_TEXT/UTF8
    Codec ID/Info : UTF-8 Plain Text
    Duration : 1 h 19 min
    Bit rate : 105 b/s
    Count of elements : 1221
    Stream size : 61.5 KiB (0%)
    Title : FULL
    Language : Russian
    Default : No
    Forced : No
    Text #4
    ID : 9
    Format : UTF-8
    Codec ID : S_TEXT/UTF8
    Codec ID/Info : UTF-8 Plain Text
    Duration : 1 h 19 min
    Bit rate : 1 b/s
    Count of elements : 25
    Stream size : 775 Bytes (0%)
    Title : FORCED
    Language : Ukrainian
    Default : No
    Forced : No
    Text #5
    ID : 10
    Format : UTF-8
    Codec ID : S_TEXT/UTF8
    Codec ID/Info : UTF-8 Plain Text
    Duration : 1 h 25 min
    Bit rate : 69 b/s
    Count of elements : 1436
    Stream size : 43.3 KiB (0%)
    Title : FULL
    Language : English
    Default : No
    Forced : No
    Menu
    00: 00: 00.000 : en: Chapter 01
    00: 05: 08.558 : en: Chapter 02
    00: 10: 35.468 : en: Chapter 03
    00: 15: 46.946 : en: Chapter 04
    00: 19: 35.257 : en: Chapter 05
    00: 25: 14.805 : en: Chapter 06
    00: 29: 25.764 : en: Chapter 07
    00: 34: 20.558 : en: Chapter 08
    00: 39: 46.968 : en: Chapter 09
    00: 45: 01.741 : en: Chapter 10
    00: 49: 07.611 : en: Chapter 11
    00: 53: 40.926 : en: Chapter 12
    00: 56: 36.560 : en: Chapter 13
    01: 00: 01.014 : en: Chapter 14
    01: 03: 45.947 : en: Chapter 15
    01: 06: 02.458 : en: Chapter 16
    01: 10: 54.584 : en: Chapter 17
    01: 18: 09.476 : en: Chapter 18
    01: 20: 21.316 : en: Chapter 19
    01: 21: 11.325 : en: Chapter 20---Information 17.02.2020 16: 02: 27 x264 info: profile High, level 4.1, 4: 2: 0, 8-bit
    ---Information 18.02.2020 5: 54: 22 x264 info: frame I: 1102 Avg QP: 14.57 size: 128343
    ---Information 18.02.2020 5: 54: 22 x264 info: frame P: 31471 Avg QP: 16.10 size: 33839
    ---Information 18.02.2020 5: 54: 22 x264 info: frame B: 92611 Avg QP: 19.68 size: 10941

    ---Information 18.02.2020 5: 54: 22 x264 info: consecutive B-frames: 2.6% 4.2% 5.5% 61.0% 6.9% 10.9% 2.5% 2.5% 0.4% 0.2% 2.8% 0.6%
    ---Information 18.02.2020 5: 54: 22 x264 info: mb I I16..4: 4.3% 69.1% 26.6%
    ---Information 18.02.2020 5: 54: 22 x264 info: mb P I16..4: 0.7% 8.4% 2.2% P16..4: 26.8% 29.7% 12.1% 3.0% 0.4% skip: 16.8%
    ---Information 18.02.2020 5: 54: 22 x264 info: mb B I16..4: 0.1% 1.1% 0.3% B16..8: 30.5% 16.8% 3.0% direct: 3.8% skip: 44.4% L0: 41.6% L1: 46.5% BI: 11.9%
    ---Information 18.02.2020 5: 54: 22 x264 info: 8x8 transform intra: 72.9% inter: 54.2%
    ---Information 18.02.2020 5: 54: 22 x264 info: coded y, uvDC, uvAC intra: 86.5% 77.8% 55.3% inter: 16.7% 11.1% 3.1%
    ---Information 18.02.2020 5: 54: 22 x264 info: i16 v, h, dc, p: 13% 19% 1% 67%
    ---Information 18.02.2020 5: 54: 22 x264 info: i8 v, h, dc, ddl, ddr, vr, hd, vl, hu: 12% 9% 7% 9% 12% 12% 12% 12% 14%
    ---Information 18.02.2020 5: 54: 22 x264 info: i4 v, h, dc, ddl, ddr, vr, hd, vl, hu: 21% 10% 4% 8% 14% 12% 12% 9% 11%
    ---Information 18.02.2020 5: 54: 22 x264 info: i8c dc, h, v, p: 31% 31% 21% 17%
    ---Information 18.02.2020 5: 54: 22 x264 info: Weighted P-Frames: Y: 4.3% UV: 3.4%
    ---Information 18.02.2020 5: 54: 22 x264 info: ref P L0: 52.9% 9.5% 15.3% 6.0% 4.7% 3.9% 3.4% 2.1% 2.0% 0.2% 0.0%
    ---Information 18.02.2020 5: 54: 22 x264 info: ref B L0: 75.8% 10.2% 5.4% 2.8% 2.2% 1.9% 1.2% 0.4%
    ---Information 18.02.2020 5: 54: 22 x264 info: ref B L1: 93.9% 6.1%
    ---Information 18.02.2020 5: 54: 22 x264 info: kb/s: 3401.01
    ---Information 18.02.2020 5: 54: 22 encoded 125184 frames, 2.51 fps, 3401.01 kb/s
    ---Information 18.02.2020 5: 54: 22 Final statistics
    ---Information 18.02.2020 5: 54: 22 Constant Quality Mode: Quality 17 computed...
    ---Information 18.02.2020 5: 54: 22 Video Bitrate Obtained (approximate): 3401 kbit/s
    Скриншоты для ознакомления




    Все одноименные релизы в Клубе
    Время раздачи: 24/7 (круглосуточно) (до появления первых 3-5 скачавших)

    Онлайн видео Семейка Аддамс


    Семейка Аддамс / The Addams Family (2019) BDRip [H.264 / 720p-LQ] торрент скачать бесплатно
    Рейтинг →
     (голосов: 1, оценка 4/5, голосовать можно 1 раз )

    Другие торренты по теме:

  • Семейка Аддамс. Дилогия. / The Addams Family. 2-Movie Set. (1991 / 1993) HDTVRip [H.264] [MP4|1024x576]
  • Семейка Аддамс. Дилогия. / The Addams Family. 2-Movie Set. (1991 / 1993) HDTVRip [H.264] [MP4|1280x720]
  • Семейка Аддамс / The Addams Family (2019) WEB-DLRip [H.264]
  • Семейка Аддамс / The Addams Family (2019) WEB-DLRip
  • Семейка Аддамс / The Addams Family (2019) WEB-DL [H.264 / 1080p-LQ]
  • Семейка Аддамс / The Addams Family (2019) AC3 5.1 [hand made]
  • Семейка Аддамс / The Addams Family (2019) WEB-DLRip [H.264] (Online cin)
  • Семейка Аддамс / The Addams Family (2019) BDRip [H.264 / 1080p] [PR]


    • Комментарии (0):

      Информация

      Информация

        Посетители, находящиеся в группе Гости, не могут оставлять комментарии в данной новости.

        ↓ Меню




        Популярное

        Металионы / Metalions (2018-2019) WEB-DLRip [H.264 / 720p-LQ] (сезон 1, серии 1-52 из 52) [Обновляемая]

        (скачиваний: 11)
        Фиксики против Кработов (2019) WEB-DL [H.264 / 1080p-LQ]

        (скачиваний: 10)
        Роботы-пожарные / Fire Robo (2016) WEB-DLRip [H.264 / 720p-LQ] (сезон 1, серии 1-26 из 26) [Обновляемая]

        (скачиваний: 8)
        Фиксики против Кработов (2019) WEB-DLRip

        (скачиваний: 7)
        Жила-была царевна (2015-2019) WEB-DLRip [H.264 / 720p-LQ] (сезон 1, серии 1-18 из 26) [Обновляемая]

        (скачиваний: 7)
        Лея Уотерс | Переключение на силу. Как научиться видеть в детях сильные стороны, чтобы помочь им расцвести (2019) [EPUB]

        (скачиваний: 5)
        Kaze no Na wa Amnesia / A Wind Named Amnesia / Ветер амнезии [1990, MV] DVDRip raw

        (скачиваний: 5)
        Канакина В. П., Горецкий В. Г. Электронное приложение к учебнику «Русский язык», 2 класс (2012) [ISO] скачать через торрент бесплатно

        (скачиваний: 5)
        Александр Нилл | Воспитание свободой. Школа Саммерхилл (2020) [EPUB]

        (скачиваний: 5)
        Роберт Кийосаки | Богатый папа, бедный папа для подростков (2014) [PDF, FB2]

        (скачиваний: 5)