ВАЖНО! Сайт скоро заблокируют! Подписывайся на наш канал в Telegram https://t.me/torrentok и получи доступ к торрентам без ограничений!
.
Авторизация | Регистрация
bitok.xyz
Торрент скачать бесплатно Мультфильмы торрент скачать Полный расколбас / Sausage Party (2016) BDRip [H.264 / 720p] торрент скачать бесплатно


    Полный расколбас / Sausage Party (2016) BDRip [H.264 / 720p] торрент скачать бесплатно

    Дата: 19-02-2020, 05:00 | .torrent скачали: 0

    Полный расколбас / Sausage Party (2016) BDRip [H.264 / 720p]Производство: США/Annapurna Pictures, Columbia Pictures, Point Grey Pictures
    Жанр: мультфильм, фэнтези, комедия, приключения
    Режиссер: Грег Тирнан, Конрад Вернон

    Описание

    Первая анимационная комедия для взрослых о невероятных приключениях еды из супермаркета. Съедобным друзьям предстоит получить ответ на главный вопрос: есть ли жизнь за стенами супермаркета, и что же происходит с продуктами после того, как они попадают к людям домой?

    Возраст: 18+ (зрителям, достигшим 18 лет. запрещено для детей)
    Рейтинг MPAA: R (лицам до 17 лет обязательно присутствие взрослого)
    Продолжительность: 01: 28: 45
    Качество видео: BDRip 720p
    Перевод: Дублированный, авторский
    Субтитры: русские, английские
    Видео: AVC/H.264, 1280x690, ~5806 kbps
    Аудио: AC3, 6 ch, 640 kbps, Русский (DUB Blu-Ray CEE)
    Аудио: AC3, 2 ch, 192 kbps, Русский (AVO Д. Пучков Goblin)(ненормативная лексика)
    Аудио: AC3, 6 ch, 640 kbps, Русский (AVO Алексеев)(ненормативная лексика)
    Аудио: AC3, 6 ch, 640 kbps, Русский (AVO Чадов)(ненормативная лексика)
    Аудио: AC3, 6 ch, 640 kbps, Английский
    Общее
    Уникальный идентификатор : 247712537444716539844073317427293585283 (0xBA5BB3085F296EA5988600984E3DFF83)
    Полное имя : D: MULTSausage.Party.2016.720p.BluRay.mkv
    Формат : Matroska
    Версия формата : Version 4
    Размер файла : 5, 31 Гбайт
    Продолжительность : 1 ч. 28 м.
    Общий поток : 8562 Кбит/сек
    Дата кодирования : UTC 2020-02-18 06: 56: 39
    Программа кодирования : mkvmerge v8.2.0 (\'World of Adventure\') 64bit
    Библиотека кодирования : libebml v1.3.1 + libmatroska v1.4.2
    Обложка : Yes
    Attachments : Cover.jpg/cover.jpg
    Видео
    Идентификатор : 1
    Формат : AVC
    Формат/Информация : Advanced Video Codec
    Профиль формата : High@L4.1
    Настройки формата : CABAC/9 Ref Frames
    Параметр CABAC формата : Да
    Параметр RefFrames формата : 9 кадров
    Идентификатор кодека : V_MPEG4/ISO/AVC
    Продолжительность : 1 ч. 28 м.
    Битрейт : 5806 Кбит/сек
    Ширина : 1280 пикселей
    Высота : 690 пикселей
    Соотношение сторон : 1, 85: 1
    Режим частоты кадров : Постоянный
    Частота кадров : 23, 976 (23976/1000) кадра/сек
    Цветовое пространство : YUV
    Субдискретизация насыщенности : 4: 2: 0
    Битовая глубина : 8 бит
    Тип развёртки : Прогрессивная
    Бит/(Пиксели*Кадры) : 0.274
    Размер потока : 3, 60 Гбайт (68%)
    Библиотека кодирования : x264 core 142 r2431+42 c69a006 tMod 8-bit@4: 2: 0 X86_64
    Настройки программы : cabac=1/ref=9/deblock=1: -3: -3/analyse=0x3: 0x133/me=umh/subme=10/psy=1/fade_compensate=0.00/psy_rd=1.00: 0.00/mixed_ref=1/me_range=32/chroma_me=1/trellis=2/8x8dct=1/cqm=0/deadzone=21, 11/fast_pskip=0/chroma_qp_offset=-2/threads=12/lookahead_threads=2/sliced_threads=0/nr=0/decimate=0/interlaced=0/bluray_compat=0/constrained_intra=0/fgo=0/bframes=9/b_pyramid=2/b_adapt=2/b_bias=0/direct=3/weightb=1/open_gop=0/weightp=2/keyint=250/keyint_min=23/scenecut=40/intra_refresh=0/rc_lookahead=60/rc=crf/mbtree=0/crf=16.6000/qcomp=0.62/qpmin=0: 0: 0/qpmax=69: 69: 69/qpstep=4/vbv_maxrate=50000/vbv_bufsize=62500/crf_max=0.0/nal_hrd=none/filler=0/ip_ratio=1.35/pb_ratio=1.25/aq=3: 0.91/aq-sensitivity=10.00/aq-factor=1.00: 1.00: 1.00/aq2=0/aq3=0/zones=58, 829, crf=16/4096, 4379, crf=16/4872, 4959, crf=16/5628, 5728, crf=16/15432, 15523, crf=16/47155, 47291, crf=16/48784, 48847, crf=16/55941, 55975, crf=16/108015, 110003, crf=16/112311, 113638, crf=16/114728, 114923, crf=16/116897, 117887, crf=16
    Default : Нет
    Forced : Нет
    Аудио #1
    Идентификатор : 2
    Формат : AC-3
    Формат/Информация : Audio Coding 3
    Коммерческое название : Dolby Digital
    Идентификатор кодека : A_AC3
    Продолжительность : 1 ч. 28 м.
    Вид битрейта : Постоянный
    Битрейт : 640 Кбит/сек
    Каналы : 6 каналов
    ChannelLayout : L R C LFE Ls Rs
    Частота : 48, 0 КГц
    Частота кадров : 31, 250 кадров/сек (1536 SPF)
    Метод сжатия : С потерями
    Размер потока : 406 Мбайт (7%)
    Заголовок : Dub
    Язык : Russian
    ServiceKind/String : Complete Main
    Default : Да
    Forced : Нет
    Аудио #2
    Идентификатор : 3
    Формат : AC-3
    Формат/Информация : Audio Coding 3
    Коммерческое название : Dolby Digital
    Идентификатор кодека : A_AC3
    Продолжительность : 1 ч. 28 м.
    Вид битрейта : Постоянный
    Битрейт : 192 Кбит/сек
    Каналы : 2 канала
    ChannelLayout : L R
    Частота : 48, 0 КГц
    Частота кадров : 31, 250 кадров/сек (1536 SPF)
    Метод сжатия : С потерями
    Размер потока : 122 Мбайт (2%)
    Заголовок : AVO, Goblin
    Язык : Russian
    ServiceKind/String : Complete Main
    Default : Нет
    Forced : Нет
    Аудио #3
    Идентификатор : 4
    Формат : AC-3
    Формат/Информация : Audio Coding 3
    Коммерческое название : Dolby Digital
    Идентификатор кодека : A_AC3
    Продолжительность : 1 ч. 28 м.
    Вид битрейта : Постоянный
    Битрейт : 640 Кбит/сек
    Каналы : 6 каналов
    ChannelLayout : L R C LFE Ls Rs
    Частота : 48, 0 КГц
    Частота кадров : 31, 250 кадров/сек (1536 SPF)
    Метод сжатия : С потерями
    Размер потока : 406 Мбайт (7%)
    Заголовок : AVO, Alekseev
    Язык : Russian
    ServiceKind/String : Complete Main
    Default : Нет
    Forced : Нет
    Аудио #4
    Идентификатор : 5
    Формат : AC-3
    Формат/Информация : Audio Coding 3
    Коммерческое название : Dolby Digital
    Идентификатор кодека : A_AC3
    Продолжительность : 1 ч. 28 м.
    Вид битрейта : Постоянный
    Битрейт : 640 Кбит/сек
    Каналы : 6 каналов
    ChannelLayout : L R C LFE Ls Rs
    Частота : 48, 0 КГц
    Частота кадров : 31, 250 кадров/сек (1536 SPF)
    Метод сжатия : С потерями
    Размер потока : 406 Мбайт (7%)
    Заголовок : VO, Chadov
    Язык : Russian
    ServiceKind/String : Complete Main
    Default : Нет
    Forced : Нет
    Аудио #5
    Идентификатор : 6
    Формат : AC-3
    Формат/Информация : Audio Coding 3
    Коммерческое название : Dolby Digital
    Идентификатор кодека : A_AC3
    Продолжительность : 1 ч. 28 м.
    Вид битрейта : Постоянный
    Битрейт : 640 Кбит/сек
    Каналы : 6 каналов
    ChannelLayout : L R C LFE Ls Rs
    Частота : 48, 0 КГц
    Частота кадров : 31, 250 кадров/сек (1536 SPF)
    Метод сжатия : С потерями
    Размер потока : 406 Мбайт (7%)
    Язык : English
    ServiceKind/String : Complete Main
    Default : Нет
    Forced : Нет
    Текст #1
    Идентификатор : 7
    Формат : UTF-8
    Идентификатор кодека : S_TEXT/UTF8
    Идентификатор кодека/Информация : UTF-8 Plain Text
    Продолжительность : 1 ч. 22 м.
    Битрейт : 4 бит/сек
    ElementCount : 57
    Размер потока : 2, 76 Кбайт (0%)
    Заголовок : Forced
    Язык : Russian
    Default : Да
    Forced : Нет
    Текст #2
    Идентификатор : 8
    Формат : UTF-8
    Идентификатор кодека : S_TEXT/UTF8
    Идентификатор кодека/Информация : UTF-8 Plain Text
    Продолжительность : 1 ч. 22 м.
    Битрейт : 131 бит/сек
    ElementCount : 1416
    Размер потока : 79, 7 Кбайт (0%)
    Заголовок : Full
    Язык : Russian
    Default : Нет
    Forced : Нет
    Текст #3
    Идентификатор : 9
    Формат : UTF-8
    Идентификатор кодека : S_TEXT/UTF8
    Идентификатор кодека/Информация : UTF-8 Plain Text
    Продолжительность : 1 ч. 26 м.
    Битрейт : 85 бит/сек
    ElementCount : 1457
    Размер потока : 53, 8 Кбайт (0%)
    Заголовок : Full
    Язык : English
    Default : Нет
    Forced : Нет
    Текст #4
    Идентификатор : 10
    Формат : UTF-8
    Идентификатор кодека : S_TEXT/UTF8
    Идентификатор кодека/Информация : UTF-8 Plain Text
    Продолжительность : 1 ч. 27 м.
    Битрейт : 91 бит/сек
    ElementCount : 1703
    Размер потока : 58, 0 Кбайт (0%)
    Заголовок : SDH
    Язык : English
    Default : Нет
    Forced : Нет
    Меню
    00: 00: 00.000 : en: 00: 00: 00.000
    00: 04: 24.264 : en: 00: 04: 24.264
    00: 10: 19.118 : en: 00: 10: 19.118
    00: 15: 27.844 : en: 00: 15: 27.844
    00: 19: 32.171 : en: 00: 19: 32.171
    00: 24: 53.701 : en: 00: 24: 53.701
    00: 29: 32.938 : en: 00: 29: 32.938
    00: 35: 44.142 : en: 00: 35: 44.142
    00: 41: 55.263 : en: 00: 41: 55.263
    00: 48: 18.521 : en: 00: 48: 18.521
    00: 54: 45.908 : en: 00: 54: 45.908
    00: 59: 54.508 : en: 00: 59: 54.508
    01: 03: 47.073 : en: 01: 03: 47.073
    01: 08: 01.286 : en: 01: 08: 01.286
    01: 11: 55.811 : en: 01: 11: 55.811
    01: 16: 03.809 : en: 01: 16: 03.809

    Скриншоты для ознакомления



    Все одноименные релизы в Клубе
    Время раздачи: c 5 до 19 мск (до появления первых 3-5 скачавших)

    Онлайн видео Полный расколбас


    Полный расколбас / Sausage Party (2016) BDRip [H.264 / 720p] торрент скачать бесплатно
    Рейтинг →
     (голосов: 1, оценка 3/5, голосовать можно 1 раз )

    Другие торренты по теме:

  • Полный расколбас / Sausage Party (2016) CamRip
  • Полный расколбас / Sausage Party (2016) HDRip [Line]
  • Полный расколбас / Sausage Party (2016) HDRip [Line]
  • Полный расколбас / Sausage Party (2016) BDRip [H.264 / 1080p-LQ] [Line]
  • Полный расколбас / Sausage Party (2016) BDRip [H.264]
  • Полный расколбас / Sausage Party (2016) BDRip [H.264 / 1080p]
  • Полный расколбас / Sausage Party (2016) BDRemux [H.264 / 1080p]
  • Полный расколбас / Sausage Party (2016) BDRemux [H.264 / 1080p]


    • Комментарии (0):

      Информация

      Информация

        Посетители, находящиеся в группе Гости, не могут оставлять комментарии в данной новости.

        ↓ Меню




        Популярное

        Роботы-пожарные / Fire Robo (2016) WEB-DLRip [H.264 / 720p-LQ] (сезон 1, серии 1-26 из 26) [Обновляемая]

        (скачиваний: 6)
        Лея Уотерс | Переключение на силу. Как научиться видеть в детях сильные стороны, чтобы помочь им расцвести (2019) [EPUB]

        (скачиваний: 5)
        Сергей Матвеев | Полный курс английского языка для лентяев (2016) [PDF]

        (скачиваний: 5)
        Жила-была царевна (2015-2019) WEB-DLRip [H.264 / 720p-LQ] (сезон 1, серии 1-18 из 26) [Обновляемая]

        (скачиваний: 4)
        Металионы / Metalions (2018-2019) WEB-DLRip [H.264 / 720p-LQ] (сезон 1, серии 1-52 из 52) [Обновляемая]

        (скачиваний: 4)
        Алексей Марков | Хулиганская экономика. Финансовые рынки для хулиганов и их родителей (2019) [EPUB]

        (скачиваний: 4)
        Серия книг | Образовательная манга (2010 - 2015) [PDF]

        (скачиваний: 4)
        Александр Нилл | Воспитание свободой. Школа Саммерхилл (2020) [EPUB]

        (скачиваний: 4)
        Мариэтта Чудакова | Рассказы про Россию. 1861—1922 (2020) [EPUB]

        (скачиваний: 3)
        Алена Зюрикова | Дзен в декрете, или Как не сойти с ума от счастья. Режим, сон, воспитание и хорошее настроение (2020) [EPUB]

        (скачиваний: 3)