ВАЖНО! Сайт скоро заблокируют! Подписывайся на наш канал в Telegram https://t.me/torrentok и получи доступ к торрентам без ограничений!
.
Авторизация | Регистрация
bitok.xyz
Торрент скачать бесплатно Мультфильмы торрент скачать Кризис Юнга / Crisis Jung (2018) WEBRip [H.264 / 1080p-LQ] (сезон 1, серии 1-10 из 10) NewStation торрент скачать бесплатно


    Кризис Юнга / Crisis Jung (2018) WEBRip [H.264 / 1080p-LQ] (сезон 1, серии 1-10 из 10) NewStation торрент скачать бесплатно

    Дата: 20-02-2020, 05:00 | .torrent скачали: 0

    Кризис Юнга / Crisis Jung (2018) WEBRip [H.264 / 1080p-LQ] (сезон 1, серии 1-10 из 10) NewStationПроизводство: Франция, Netflix, Bobbypills
    Жанр: Для взрослых, приключения, боевик
    Режиссер: Жереми Перин, Батист Гобер

    Описание

    Добро пожаловать в разрушенный взрывами жестокости мир, мир без любви. Юнг, герой с разбитым сердцем, ведёт поиски своего пути: воссоединение с Марией, его утраченной любимой, варварски обезглавленной Малышом Иисусом. Он может рассчитывать на поддержку союзников, встретившихся ему на кровавой тропе, теми, кто помогает ему понять других и самого себя. Также он справляется со своими вспышками жестокости, из-за неконтролируемого проклятья происходящего из его кровожадной души.

    Возраст: 18+ (зрителям, достигшим 18 лет. запрещено для детей)
    Релиз от: NewStation
    Продолжительность: ~00: 06: 40 серия
    Качество видео: WEBRip
    Перевод: Многоголосый профессиональный (NewStation)присутствует ненормативая лексика
    Субтитры: английские, французские
    Видео: AVC/H.264, 1920x1080, ~1178 Kbps
    Аудио #1: AC3, 2 ch, 256 kbps, - Русский (NewStation)
    Аудио #2: AAC, 2 ch, 128 kbps, - Английский01 Отчаяние
    02 Нежность
    03 Терпимость
    04 Уверенность
    05 Милосердие
    06 Сострадание
    07 Зрелость
    08 Героизм
    09 Максимальная жестокость
    10 За пределами жестокости
    Общее
    Уникальный идентификатор : 9392646943539966413015498304500712885 (0x710F53F865BB66A9901BCC56576C5B5)
    Полное имя : F: NewStationCrisis.Jung.S01.WEBRip.1080p.NewStationCrisis.Jung.S01E01.WEBRip.1080p.NewStation.mkv
    Формат : Matroska
    Версия формата : Version 4/Version 2
    Размер файла : 77, 2 Мбайт
    Продолжительность : 6 м. 57 с.
    Общий поток : 1550 Кбит/сек
    Дата кодирования : UTC 2020-02-14 12: 03: 02
    Программа кодирования : mkvmerge v28.1.0 (\'Morning Child\') 64-bit
    Библиотека кодирования : libebml v1.3.6 + libmatroska v1.4.9/Lavf58.9.100
    Видео
    Идентификатор : 1
    Формат : AVC
    Формат/Информация : Advanced Video Codec
    Профиль формата : High@L4
    Настройки формата : CABAC/3 Ref Frames
    Параметр CABAC формата : Да
    Параметр RefFrames формата : 3 кадра
    Идентификатор кодека : V_MPEG4/ISO/AVC
    Продолжительность : 6 м. 52 с.
    Битрейт : 1178 Кбит/сек
    Ширина : 1920 пикселей
    Высота : 1080 пикселей
    Соотношение сторон : 16: 9
    Режим частоты кадров : Постоянный
    Частота кадров : 25, 000 кадров/сек
    Цветовое пространство : YUV
    Субдискретизация насыщенности : 4: 2: 0
    Битовая глубина : 8 бит
    Тип развёртки : Прогрессивная
    Бит/(Пиксели*Кадры) : 0.023
    Размер потока : 58, 0 Мбайт (75%)
    Default : Да
    Forced : Нет
    Аудио #1
    Идентификатор : 2
    Формат : AC-3
    Формат/Информация : Audio Coding 3
    Идентификатор кодека : A_AC3
    Продолжительность : 6 м. 57 с.
    Вид битрейта : Постоянный
    Битрейт : 256 Кбит/сек
    Каналы : 2 канала
    Расположение каналов : Front: L R
    Частота : 48, 0 КГц
    Частота кадров : 31, 250 кадров/сек (1536 SPF)
    Битовая глубина : 16 бит
    Метод сжатия : С потерями
    Размер потока : 12, 7 Мбайт (17%)
    Заголовок : NewStation
    Язык : Russian
    ServiceKind/String : Complete Main
    Default : Да
    Forced : Нет
    Аудио #2
    Идентификатор : 3
    Формат : AAC
    Формат/Информация : Advanced Audio Codec
    Профиль формата : HE-AAC/LC
    Настройки формата : Explicit
    Идентификатор кодека : A_AAC-2
    Продолжительность : 6 м. 52 с.
    Битрейт : 128 Кбит/сек
    Каналы : 2 канала
    Расположение каналов : Front: L R
    Частота : 48, 0 КГц/24, 0 КГц
    Частота кадров : 23, 438 кадра/сек (1024 SPF)
    Метод сжатия : С потерями
    Размер потока : 6, 30 Мбайт (8%)
    Заголовок : Francais
    Язык : French
    Default : Нет
    Forced : Нет
    Текст #1
    Идентификатор : 4
    Формат : UTF-8
    Идентификатор кодека : S_TEXT/UTF8
    Идентификатор кодека/Информация : UTF-8 Plain Text
    Продолжительность : 5 м. 55 с.
    Битрейт : 53 бит/сек
    ElementCount : 75
    Размер потока : 2, 33 Кбайт (0%)
    Заголовок : Francais
    Язык : French
    Default : Нет
    Forced : Нет
    Текст #2
    Идентификатор : 5
    Формат : UTF-8
    Идентификатор кодека : S_TEXT/UTF8
    Идентификатор кодека/Информация : UTF-8 Plain Text
    Продолжительность : 5 м. 52 с.
    Битрейт : 51 бит/сек
    ElementCount : 74
    Размер потока : 2, 21 Кбайт (0%)
    Язык : English
    Default : Нет
    Forced : Нет

    Скриншоты для ознакомления



    Все одноименные релизы в Клубе
    Время раздачи: 24/7 (круглосуточно) (до появления первых 3-5 скачавших)

    Онлайн видео Кризис Юнга


    Кризис Юнга / Crisis Jung (2018) WEBRip [H.264 / 1080p-LQ] (сезон 1, серии 1-10 из 10) NewStation торрент скачать бесплатно
    Рейтинг →
     (голосов: 1, оценка 4/5, голосовать можно 1 раз )

    Другие торренты по теме:

  • Алекс Корнелл | Опять творческий кризис 90 проверенных способов преодолеть кризис и снова найти вдохновение (2014) [PDF] скачать через торрент бесплатно
  • Новые русские сенсации. Любовь и кризис олигарха № 1 (2014.12.20) SATRip скачать через торрент бесплатно
  • Михаил Задорнов. Неформат 65 (Курс доллара и кризис 2014) (2014) WEBRip
  • Чрезвычайное происшествие. Спецвыпуск. Арсений Яценюк - человек-кризис (18.01.2015) SATRip скачать через торрент бесплатно
  • Право голоса. Украина. Кризис взаимопонимания (09.06.2015) SATRip скачать через торрент бесплатно
  • Classroom Crisis / Кризис в классе [2015, TV, 2 из 12] HDTV 720p raw скачать через торрент бесплатно
  • А. М. Зверев | Модернизм в литературе США: формирование, эволюция, кризис (1979) [DJVU] скачать через торрент бесплатно
  • И. С. Кон | Философский идеализм и кризис буржуазной исторической мысли [Критические очерки философии истории эпохи империализма] (1959) [DJVU] скачать через торрент бесплатно


    • Комментарии (0):

      Информация

      Информация

        Посетители, находящиеся в группе Гости, не могут оставлять комментарии в данной новости.

        ↓ Меню




        Популярное

        Роботы-пожарные / Fire Robo (2016) WEB-DLRip [H.264 / 720p-LQ] (сезон 1, серии 1-26 из 26) [Обновляемая]

        (скачиваний: 6)
        Лея Уотерс | Переключение на силу. Как научиться видеть в детях сильные стороны, чтобы помочь им расцвести (2019) [EPUB]

        (скачиваний: 5)
        Сергей Матвеев | Полный курс английского языка для лентяев (2016) [PDF]

        (скачиваний: 5)
        Жила-была царевна (2015-2019) WEB-DLRip [H.264 / 720p-LQ] (сезон 1, серии 1-18 из 26) [Обновляемая]

        (скачиваний: 4)
        Металионы / Metalions (2018-2019) WEB-DLRip [H.264 / 720p-LQ] (сезон 1, серии 1-52 из 52) [Обновляемая]

        (скачиваний: 4)
        Алексей Марков | Хулиганская экономика. Финансовые рынки для хулиганов и их родителей (2019) [EPUB]

        (скачиваний: 4)
        Серия книг | Образовательная манга (2010 - 2015) [PDF]

        (скачиваний: 4)
        Александр Нилл | Воспитание свободой. Школа Саммерхилл (2020) [EPUB]

        (скачиваний: 4)
        Мариэтта Чудакова | Рассказы про Россию. 1861—1922 (2020) [EPUB]

        (скачиваний: 3)
        Алена Зюрикова | Дзен в декрете, или Как не сойти с ума от счастья. Режим, сон, воспитание и хорошее настроение (2020) [EPUB]

        (скачиваний: 3)