ВАЖНО! Сайт скоро заблокируют! Подписывайся на наш канал в Telegram https://t.me/torrentok и получи доступ к торрентам без ограничений!
.
Авторизация | Регистрация
bitok.xyz
Торрент скачать бесплатно Мультфильмы торрент скачать Promare | Промар [2019, Movie] BDRip 1080p raw+rus торрент скачать бесплатно


    Promare | Промар [2019, Movie] BDRip 1080p raw+rus торрент скачать бесплатно

    Дата: 20-02-2020, 05:00 | .torrent скачали: 5

    Promare | Промар [2019, Movie] BDRip 1080p raw+rusТип: Movie
    Жанр: Меха, Экшен, Фантастика
    Продолжительность: 01: 51: 06
    Дата выпуска: 24.05.2019
    Автор оригинала: Кадзуки Накасима
    Режиссер: Хироюки Имаиси
    Производство: Trigger/ Япония

    World-Art |AniDB |MyAnimelist |Shikimori

    Описание

    Перед нами оригинальное аниме от сценариста Кадзуки Накасимы и режиссёра Хироюки Имаиси, известных по нашумевшим работам Гуррен-Лаганн и Убей или умри. Нас ожидает их новое грандиозное произведение, которое станет некой смесью двух названных аниме.
    Сюжет поведает нам историю главного героя по имени Гало Тимос, ставшего новобранцем в пожарной бригаде, которая использует в работе механические устройства, известные как Матой-Тех.
    Автор: Gerasya ©Shikimori
    Качество Видео: BDRip
    Видео: AVC/x264 , 1920x1080, 23.976 fps, 14.3 Mb/s, 0.287 bpp8-bit
    Язык Озвучки: Японский и Русский
    Озвучка: Многоголосая закадровая
    Аудио №1: AAC2.0 , 48.0 kHz, 157 kb/s(AniStar) |Язык:
    Аудио №2: DTS2.0 , 48.0 kHz, 1 824 kb/s 24-Bit(Original) |Язык:
    Аудио №3: FLAC5.1 , 48.0 kHz, 4 501 kb/s 24-Bit(Original) |Язык:
    * Озвучка будет добавляться по мере появления её в сети!
    Субтитры: Надписи/Полные(PrometoSubs)

    Скриншоты для ознакомления





    General
    Unique ID : 191584005935044394676659160287194686365 (0x9021BCC59088E9778FC94C56DA98A39D)
    Complete name : D: Промар (Promare) BDRip (2019).mkv
    Format : Matroska
    Format version : Version 4
    File size : 16.1 GiB
    Duration : 1 h 51 min
    Overall bit rate mode : Variable
    Overall bit rate : 20.8 Mb/s
    Encoded date : UTC 2020-02-19 02: 22: 14
    Writing application : mkvmerge v43.0.0 (\'The Quartermaster\') 64-bit
    Writing library : libebml v1.3.10 + libmatroska v1.5.2
    Cover : Yes
    Attachments : 10920.otf/10950.otf/13891.ttf/14364.ttf/17647.otf/STENCIL.TTF/trebucbd.ttf/trebucbi.ttf/10755.otf/cover.jpg
    Video
    ID : 1
    Format : AVC
    Format/Info : Advanced Video Codec
    Format profile : High@L4.1
    Format settings : CABAC/4 Ref Frames
    Format settings, CABAC : Yes
    Format settings, Reference : 4 frames
    Codec ID : V_MPEG4/ISO/AVC
    Duration : 1 h 51 min
    Bit rate : 14.3 Mb/s
    Width : 1 920 pixels
    Height : 1 080 pixels
    Display aspect ratio : 16: 9
    Frame rate mode : Constant
    Frame rate : 23.976 (24000/1001) FPS
    Color space : YUV
    Chroma subsampling : 4: 2: 0
    Bit depth : 8 bits
    Scan type : Progressive
    Bits/(Pixel*Frame) : 0.287
    Stream size : 11.1 GiB (69%)
    Writing library : x264 core 157 r2969 d4099dd
    Encoding settings : cabac=1/ref=4/deblock=1: -1: -1/analyse=0x3: 0x133/me=umh/subme=9/psy=1/psy_rd=0.85: 0.00/mixed_ref=1/me_range=32/chroma_me=1/trellis=2/8x8dct=1/cqm=0/deadzone=21, 11/fast_pskip=1/chroma_qp_offset=-4/threads=4/lookahead_threads=1/sliced_threads=0/nr=0/decimate=0/interlaced=0/bluray_compat=0/constrained_intra=0/bframes=5/b_pyramid=2/b_adapt=2/b_bias=0/direct=2/weightb=1/open_gop=0/weightp=2/keyint=230/keyint_min=23/scenecut=40/intra_refresh=0/rc_lookahead=50/rc=crf/mbtree=1/crf=15.0/qcomp=0.70/qpmin=10/qpmax=42/qpstep=4/vbv_maxrate=50000/vbv_bufsize=50000/crf_max=0.0/nal_hrd=none/filler=0/ip_ratio=1.40/aq=1: 0.90
    Language : Japanese
    Default : Yes
    Forced : No
    Audio #1
    ID : 2
    Format : AAC LC
    Format/Info : Advanced Audio Codec Low Complexity
    Codec ID : A_AAC-2
    Duration : 1 h 51 min
    Bit rate : 157 kb/s
    Channel(s) : 2 channels
    Channel layout : L R
    Sampling rate : 48.0 kHz
    Frame rate : 46.875 FPS (1024 SPF)
    Compression mode : Lossy
    Stream size : 125 MiB (1%)
    Title : AniStar
    Language : Russian
    Default : No
    Forced : No
    Audio #2
    ID : 3
    Format : DTS XLL
    Format/Info : Digital Theater Systems
    Commercial name : DTS-HD Master Audio
    Codec ID : A_DTS
    Duration : 1 h 51 min
    Bit rate mode : Variable
    Bit rate : 1 824 kb/s
    Channel(s) : 2 channels
    Channel layout : L R
    Sampling rate : 48.0 kHz
    Frame rate : 93.750 FPS (512 SPF)
    Bit depth : 24 bits
    Compression mode : Lossless
    Stream size : 1.42 GiB (9%)
    Title : Original 2.0
    Language : Japanese
    Default : Yes
    Forced : Yes
    Audio #3
    ID : 4
    Format : DTS XLL
    Format/Info : Digital Theater Systems
    Commercial name : DTS-HD Master Audio
    Codec ID : A_DTS
    Duration : 1 h 51 min
    Bit rate mode : Variable
    Bit rate : 4 501 kb/s
    Channel(s) : 6 channels
    Channel layout : C L R Ls Rs LFE
    Sampling rate : 48.0 kHz
    Frame rate : 93.750 FPS (512 SPF)
    Bit depth : 24 bits
    Compression mode : Lossless
    Stream size : 3.49 GiB (22%)
    Title : Original 5.1
    Language : Japanese
    Default : No
    Forced : No
    Text
    ID : 5
    Format : ASS
    Codec ID : S_TEXT/ASS
    Codec ID/Info : Advanced Sub Station Alpha
    Duration : 1 h 46 min
    Bit rate : 142 b/s
    Count of elements : 1565
    Compression mode : Lossless
    Stream size : 111 KiB (0%)
    Title : Full (PrometoSubs)
    Language : Russian
    Default : No
    Forced : No
    Время раздачи: С 8: 00 по 18: 00 МСК (до появления первых 3-5 скачавших)
    Понравился релиз? Ставь Оценку и нажми Спасибо
    Это серьёзно меня мотивирует делать подобные релизы.
    Если всем сердцем любишь аниме - подключайся и оставайся на раздаче максимально долго!
    За ретайминг звука и субтитров огромное спасибо DS2902
    Полный список ретаймов


    Онлайн видео Promare


    Promare | Промар [2019, Movie] BDRip 1080p raw+rus торрент скачать бесплатно
    Рейтинг →
     (голосов: 1, оценка 4/5, голосовать можно 1 раз )

    Другие торренты по теме:

  • Promare | Промар [2019, Movie + 2 SP] BDRip 1080p raw


    • Комментарии (0):

      Информация

      Информация

        Посетители, находящиеся в группе Гости, не могут оставлять комментарии в данной новости.

        ↓ Меню




        Популярное

        Роботы-пожарные / Fire Robo (2016) WEB-DLRip [H.264 / 720p-LQ] (сезон 1, серии 1-26 из 26) [Обновляемая]

        (скачиваний: 6)
        Сергей Матвеев | Полный курс английского языка для лентяев (2016) [PDF]

        (скачиваний: 5)
        Серия книг | Образовательная манга (2010 - 2015) [PDF]

        (скачиваний: 4)
        Мариэтта Чудакова | Рассказы про Россию. 1861—1922 (2020) [EPUB]

        (скачиваний: 3)
        Алексей Марков | Хулиганская экономика. Финансовые рынки для хулиганов и их родителей (2019) [EPUB]

        (скачиваний: 3)
        Ляля Кандаурова | Как слушать музыку (2020) [EPUB]

        (скачиваний: 3)
        Александр Нилл | Воспитание свободой. Школа Саммерхилл (2020) [EPUB]

        (скачиваний: 3)
        Алена Зюрикова | Дзен в декрете, или Как не сойти с ума от счастья. Режим, сон, воспитание и хорошее настроение (2020) [EPUB]

        (скачиваний: 3)
        Жила-была царевна (2015-2019) WEB-DLRip [H.264 / 720p-LQ] (сезон 1, серии 1-18 из 26) [Обновляемая]

        (скачиваний: 3)
        Gekijouban KanColle | Kantai Collection Movie | Fleet Girls Collection: Movie Sequence| Коллекционная флотилия на большом экране [2016, Movie] BDrip 720p 10bit raw

        (скачиваний: 3)