ВАЖНО! Сайт скоро заблокируют! Подписывайся на наш канал в Telegram https://t.me/torrentok и получи доступ к торрентам без ограничений!
.
Авторизация | Регистрация
bitok.xyz
Торрент скачать бесплатно Мультфильмы торрент скачать Дунканвилль / Duncanville (2020) WEBRip [H.264 / 1080p-LQ] (Сезон 1, Серии 1 из 13) торрент скачать бесплатно


    Дунканвилль / Duncanville (2020) WEBRip [H.264 / 1080p-LQ] (Сезон 1, Серии 1 из 13) торрент скачать бесплатно

    Дата: 21-02-2020, 05:00 | .torrent скачали: 2

    Дунканвилль / Duncanville (2020) WEBRip [H.264 / 1080p-LQ] (Сезон 1, Серии 1 из 13)Производство: США/20th Century Fox Television, 3 Arts Entertainment, Fox Entertainment, Fox Television Animation, Paper Kite Productions, Universal Animation Studios, Universal TV
    Жанр: мультфильм, комедия
    Режиссер: Энн Уокер Фаррелл, Фрэнк Марино

    Описание

    История про 15-летнего Дункана, который живёт в самой обычной семье: с матерью, работающей на парковке, заботливым растяпой-отцом и двумя сестрами. Дункан хочет повзрослеть, а его сестра — выйти за него замуж.

    Дата мировой премьеры: 16 февраля 2020
    Дата российской премьеры: 17 февраля 2020
    Релиз от: Astral Projection
    Продолжительность: Серия x ~00: 21: 20
    Качество видео: WEBRip
    Перевод: Многоголосый профессиональный (Zone Vision Studio)
    Субтитры: Отсутствуют
    Видео: AVC/H.264, 1920x1080, ~8109 Kbps
    Аудио: AC3, 2 ch, 256 Kbps
    Format : Matroska
    Format version : Version 4
    File size : 1.25 GiB
    Duration : 21 min 19 s
    Overall bit rate : 8 365 kb/s
    Encoded date : UTC 2020-02-19 22: 16: 48
    Writing application : mkvmerge v43.0.0 (\'The Quartermaster\') 64-bit
    Writing library : libebml v1.3.10 + libmatroska v1.5.2
    Video
    ID : 1
    Format : AVC
    Format/Info : Advanced Video Codec
    Format profile : Baseline@L4
    Format settings : 1 Ref Frames
    Format settings, CABAC : No
    Format settings, Reference frames : 1 frame
    Format settings, GOP : M=1, N=12
    Codec ID : V_MPEG4/ISO/AVC
    Duration : 21 min 19 s
    Bit rate : 8 109 kb/s
    Width : 1 920 pixels
    Height : 1 080 pixels
    Display aspect ratio : 16: 9
    Frame rate mode : Variable
    Frame rate : 25.000 FPS
    Color space : YUV
    Chroma subsampling : 4: 2: 0
    Bit depth : 8 bits
    Scan type : Progressive
    Bits/(Pixel*Frame) : 0.156
    Stream size : 1.21 GiB (97%)
    Language : English
    Default : Yes
    Forced : No
    Audio
    ID : 2
    Format : AC-3
    Format/Info : Audio Coding 3
    Commercial name : Dolby Digital
    Codec ID : A_AC3
    Duration : 21 min 3 s
    Bit rate mode : Constant
    Bit rate : 256 kb/s
    Channel(s) : 2 channels
    Channel layout : L R
    Sampling rate : 44.1 kHz
    Frame rate : 28.711 FPS (1536 SPF)
    Compression mode : Lossy
    Delay relative to video : 16 ms
    Stream size : 38.6 MiB (3%)
    Language : Russian
    Service kind : Complete Main
    Default : Yes
    Forced : No

    Скриншоты для ознакомления



    Все одноименные релизы в Клубе
    Время раздачи: с 23: 00 до 2: 30 (до появления первых 3-5 скачавших)

    Онлайн видео Дунканвилль


    Дунканвилль / Duncanville (2020) WEBRip [H.264 / 1080p-LQ] (Сезон 1, Серии 1 из 13) торрент скачать бесплатно
    Рейтинг →
     (голосов: 1, оценка 4/5, голосовать можно 1 раз )

    Другие торренты по теме:



      Комментарии (0):

      Информация

      Информация

        Посетители, находящиеся в группе Гости, не могут оставлять комментарии в данной новости.

        ↓ Меню




        Популярное

        Металионы / Metalions (2018-2019) WEB-DLRip [H.264 / 720p-LQ] (сезон 1, серии 1-52 из 52) [Обновляемая]

        (скачиваний: 11)
        Фиксики против Кработов (2019) WEB-DL [H.264 / 1080p-LQ]

        (скачиваний: 10)
        Роботы-пожарные / Fire Robo (2016) WEB-DLRip [H.264 / 720p-LQ] (сезон 1, серии 1-26 из 26) [Обновляемая]

        (скачиваний: 8)
        Фиксики против Кработов (2019) WEB-DLRip

        (скачиваний: 7)
        Жила-была царевна (2015-2019) WEB-DLRip [H.264 / 720p-LQ] (сезон 1, серии 1-18 из 26) [Обновляемая]

        (скачиваний: 7)
        Лея Уотерс | Переключение на силу. Как научиться видеть в детях сильные стороны, чтобы помочь им расцвести (2019) [EPUB]

        (скачиваний: 5)
        Kaze no Na wa Amnesia / A Wind Named Amnesia / Ветер амнезии [1990, MV] DVDRip raw

        (скачиваний: 5)
        Канакина В. П., Горецкий В. Г. Электронное приложение к учебнику «Русский язык», 2 класс (2012) [ISO] скачать через торрент бесплатно

        (скачиваний: 5)
        Александр Нилл | Воспитание свободой. Школа Саммерхилл (2020) [EPUB]

        (скачиваний: 5)
        Роберт Кийосаки | Богатый папа, бедный папа для подростков (2014) [PDF, FB2]

        (скачиваний: 5)