Подписывайся на наш канал в Telegram https://t.me/torrentok и получи доступ к торрентам без ограничений!
.
Авторизация | Регистрация
bitok.xyz
Торрент скачать бесплатно Мультфильмы торрент скачать Приключения Буратино (1975) DVD5 торрент скачать бесплатно


    Приключения Буратино (1975) DVD5 торрент скачать бесплатно

    Дата: 21-02-2020, 05:00 | .torrent скачали: 0

    Приключения Буратино (1975) DVD5Производство: СССР, Беларусьфильм, Гостелерадио
    Жанр: Детский, мюзикл, фэнтези, приключения, семейный
    Режиссер: Леонид Нечаев
    Композитор: Алексей Рыбников

    Актеры
    Дмитрий Иосифов, Татьяна Проценко, Роман Столкарц, Томас Аугустинас, Григорий Светлорусов, Николай Гринько, Юрий Катин-Ярцев, Рина Зеленая, Владимир Этуш, Ролан Быков, Елена Санаева, Владимир Басов, Баадур Цуладзе, Валентин Букин, Михаил Петров, Юрий Баталов, Владимир Грицевский, Елена Королева, Василий Чумаков

    Описание

    На дурака не нужен нож: ему немного подпоешь — и делай с ним, что хошь! Деревянный человечек, которого Папа Карло выстругал из полена, получился веселым, дерзким, шумным и доверчивым. Лиса Алиса и Кот Базилио завели его в Страну Дураков, но мудрая Черепаха Тортила помогла Буратино найти Золотой Ключик, потому что он был ужасно обаятельным.

    Продолжительность: 02: 12: 56
    Качество видео: DVD5
    Субтитры: Отсутствуют
    Доп. материалы на диске: Отсутствуют
    Видео: MPEG2, 720x576 (4: 3) ~4205 Kbps
    Аудио: AC3, 2 ch, 224 KbpsРоль черепахи Тортилы Нечаев предлагал поначалу Фаине Раневской, но та, едва услышав, что фильм сниматься будет в Белоруссии, заявила, что согласна сниматься, только если съёмки будут проходить в подъезде её дома.
    Диму Иосифова (Буратино) режиссёр Нечаев случайно увидел на катке. Заработная плата юного актера составляла 100 рублей в месяц.
    Таню Проценко (Мальвина) помощница режиссёра нашла в поезде. В отличие от других детей-актёров, она была москвичка (все остальные дети — из городов Белоруссии).
    Ролан Быков (кот Базилио) и Елена Санаева (лиса Алиса) в то время были муж и жена. Также это первый фильм, где они снялись вместе.
    В песне черепахи Тортилы Рина Зелёная не поёт второй куплет, так как в нём упоминался её возраст.
    Для киностудии Беларусьфильм это был первый фильм снятый для детей. До этого на ней снимали в основном военные фильмы.Title: Приключения Буратино (1975) DVD5
    Size: 4.34 Gb ( 4 551 286, 00 KBytes ) - DVD-5
    Enabled regions: 1, 2, 3, 4, 5, 6, 7, 8
    VTS_01 :
    Play Length: 02: 12: 56
    Video: PAL 4: 3 (720x576) VBR
    Audio:
    English (Dolby AC3, 2 ch)
    * Menus Information *
    VIDEO_TS Menu
    Video:
    PAL 4: 3 (720x576) VBR
    Audio:
    Not specified (Dolby AC3, 2 ch)
    English Language Unit :
    Title Menu
    VTS_01 Menu
    Video:
    PAL 4: 3 (720x576) VBR
    Audio:
    Not specified (Dolby AC3, 2 ch)
    English Language Unit :
    Root Menu
    Общее
    Полное имя : E: РаздачиВидеоПриключения Буратино (1975) DVD5VIDEO_TSVTS_01_2.VOB
    Формат : MPEG-PS
    Размер файла : 1024 Мбайт
    Продолжительность : 31 м.
    Режим общего битрейта : Переменный
    Общий поток : 4519 Кбит/сек
    Видео
    Идентификатор : 224 (0xE0)
    Формат : MPEG Video
    Версия формата : Version 2
    Профиль формата : Main@Main
    Параметр BVOP формата : Да
    Параметр матрицы формата : По умолчанию
    Параметр GOP формата : M=3, N=12
    Продолжительность : 31 м.
    Вид битрейта : Переменный
    Битрейт : 4205 Кбит/сек
    Максимальный битрейт : 7000 Кбит/сек
    Ширина : 720 пикселей
    Высота : 576 пикселей
    Соотношение сторон : 4: 3
    Частота кадров : 25, 000 кадров/сек
    Стандарт вещания : PAL
    Цветовое пространство : YUV
    Субдискретизация насыщенности : 4: 2: 0
    Битовая глубина : 8 бит
    Тип развёртки : Чересстрочная
    Порядок развёртки : Нижнее поле первое
    Метод сжатия : С потерями
    Бит/(Пиксели*Кадры) : 0.406
    Размер потока : 953 Мбайт (93%)
    Основные цвета : BT.470-2 System B, BT.470-2 System G
    Характеристики трансфера : BT.470-2 System B, BT.470-2 System G
    Коэффициенты матрицы : BT.470-2 System B, BT.470-2 System G
    Аудио
    Идентификатор : 189 (0xBD)-128 (0x80)
    Формат : AC-3
    Формат/Информация : Audio Coding 3
    Расширение режима : CM (complete main)
    Параметр Endianness формата : Big
    Режим смешивания : DVD-Video
    Продолжительность : 31 м.
    Вид битрейта : Постоянный
    Битрейт : 224 Кбит/сек
    Каналы : 2 канала
    Расположение каналов : Front: L R
    Частота : 48, 0 КГц
    Битовая глубина : 16 бит
    Метод сжатия : С потерями
    Задержка видео : -688 мс.
    Размер потока : 50, 8 Мбайт (5%)
    Меню


    Онлайн видео Дунканвилль


    Приключения Буратино (1975) DVD5 торрент скачать бесплатно
    Рейтинг →
     (голосов: 1, оценка 3/5, голосовать можно 1 раз )

    Другие торренты по теме:

  • А.Н. Толстой | Невероятные приключения Буратино (1995) [MP3] скачать через торрент бесплатно
  • Приключения Буратино 1.2 [Ru] скачать через торрент бесплатно
  • Алексей Толстой и др. | Приключения Буратино [6 книг] (1936-2005) [FB2, DJVU] скачать через торрент бесплатно
  • Приключения Буратино (1975) DVD5
  • А. Толстой | Золотой ключик или приключения Буратино (1963) [PDF, DJVU]
  • А.Н. Толстой | Золотой ключик или приключения Буратино [Первое издание] (1936) [PDF]
  • Приключения Буратино (1975) DVBRip [H.264]


    • Комментарии (0):

      Информация

      Информация

        Посетители, находящиеся в группе Гости, не могут оставлять комментарии в данной новости.

        ↓ Меню




        Популярное

        Фиксики против Кработов (2019) WEB-DLRip

        (скачиваний: 134)
        Рик и Морти / Rick and Morty (2015) WEB-DL [H.264 / 1080p] (Сезон 2, серии 1-10 из 10) Сыендук [EN / RU Sub] скачать через торрент бесплатно

        (скачиваний: 109)
        М.Ю. Демидова | ЕГЭ-2020. Физика. 30 типовых вариантов (2020) [PDF]

        (скачиваний: 80)
        Малышарики (2015-2019) WEB-DL [H.264 / 1080p-LQ] (серии 1-154 из 208) [Обновляемая]

        (скачиваний: 68)
        Рик и Морти / Rick and Morty (2013) BDRip [H.264 / 720p-LQ] (сезон 1, серии 1-11 из 11) Сыендук

        (скачиваний: 65)
        Рик и Морти / Rick and Morty (2013) BDRip [H.264 / 1080p] (Сезон 1, серии 1-11 из 11) Сыендук [EN Sub] скачать через торрент бесплатно

        (скачиваний: 46)
        Фиксики против Кработов (2019) WEB-DL [H.264 / 1080p-LQ]

        (скачиваний: 32)
        Свинка Пеппа / Peppa Pig (2004-2012) SATRip (1-4 сезоны: 208 серий из 209) скачать через торрент бесплатно

        (скачиваний: 28)
        Рик и Морти / Rick and Morty (2017) WEBRip [H.264 / 720p-LQ] (Сезон 3, серии 1 из ) Сыендук

        (скачиваний: 26)
        Жила-была царевна (2015-2019) WEB-DLRip [H.264 / 720p-LQ] (сезон 1, серии 1-18 из 26) [Обновляемая]

        (скачиваний: 21)