Подписывайся на наш канал в Telegram https://t.me/torrentok и получи доступ к торрентам без ограничений!
.
Авторизация | Регистрация
bitok.xyz
Торрент скачать бесплатно Мультфильмы торрент скачать Скуби-Ду! Под Куполом Цирка / Big Top Scooby-Doo! (2012) BDRip [H.264 / 1080p-LQ] торрент скачать бесплатно


    Скуби-Ду! Под Куполом Цирка / Big Top Scooby-Doo! (2012) BDRip [H.264 / 1080p-LQ] торрент скачать бесплатно

    Дата: 22-02-2020, 05:00 | .torrent скачали: 0

    Скуби-Ду! Под Куполом Цирка / Big Top Scooby-Doo! (2012) BDRip [H.264 / 1080p-LQ]Производство: США/Warner Bros. Animation
    Жанр: Приключения, Комедия
    Режиссер: Бен Джонс

    Описание

    В этом фильме вы увидите как группа друзей отправляется в Антлантик-Сити с целью посетить цирк. Развлекаясь в отпуске, отдыхая в этих тихих краях, они даже не подозревают, что в этом месте может находится опасное и злое чудище - оборотень. Команде приходится заняться обыденными вещами, работой, которая у них лучше всего получается. Им придется работать под прикрытием, с целью выкрыть оборотня, который угрожает городу. Фреду придется освоить навыки воздушного гимнаста, Дафна - клоун, Велма - переоделась в человека-ракету, а Скуби - необыкновенная собака, которая может исполнять тяжелые трюки. Теперь команда готова разоблачить оборотня и спасти цирк...

    Продолжительность: 01: 20: 27
    Качество видео: BDRip
    Перевод: Дублированный
    Субтитры: английские (полные)
    Видео: AVC/H.264, 1920х1080, ~5 Mbps
    Аудио #1: AC3, 2 ch, 192 kbps - русский (дубляж, Пифагор)
    Аудио #2: AC3, 6 ch, 640 kbps - английский
    x264 info: frame I: 1273 Avg QP: 13.41 size: 256188
    x264 info: frame P: 38771 Avg QP: 15.87 size: 49658
    x264 info: frame B: 75693 Avg QP: 17.36 size: 10123
    Unique ID : 220764148200850669221159856505434027672 (0xA615A0DCA41F09FFEE6B4F6E28E23698)
    Complete name : D: TempNNMBig Top Scooby-Doo.2012.1080p.mkv
    Format : Matroska
    Format version : Version 4/Version 2
    File size : 3.28 GiB
    Duration : 1h 20mn
    Overall bit rate : 5 837 Kbps
    Movie name : 2012 Big Top Scooby-Doo!
    Writing library : Lavf57.71.100
    Video
    ID : 1
    Format : AVC
    Format/Info : Advanced Video Codec
    Format profile : High@L4.1
    Format settings, CABAC : Yes
    Format settings, ReFrames : 4 frames
    Codec ID : V_MPEG4/ISO/AVC
    Duration : 1h 20mn
    Bit rate : 5 000 Kbps
    Width : 1 920 pixels
    Height : 1 080 pixels
    Display aspect ratio : 16: 9
    Frame rate mode : Constant
    Frame rate : 23.976 fps
    Color space : YUV
    Chroma subsampling : 4: 2: 0
    Bit depth : 8 bits
    Scan type : Progressive
    Bits/(Pixel*Frame) : 0.101
    Stream size : 2.75 GiB (84%)
    Title : Tooncore
    Writing library : x264 core 157 r2935 545de2f
    Encoding settings : cabac=1/ref=4/deblock=1: -3: -3/analyse=0x3: 0x113/me=umh/subme=9/psy=1/psy_rd=1.05: 0.10/mixed_ref=1/me_range=24/chroma_me=1/trellis=2/8x8dct=1/cqm=0/deadzone=21, 11/fast_pskip=0/chroma_qp_offset=-3/threads=5/lookahead_threads=1/sliced_threads=0/nr=0/decimate=0/interlaced=0/bluray_compat=0/constrained_intra=0/bframes=6/b_pyramid=2/b_adapt=2/b_bias=0/direct=1/weightb=1/open_gop=0/weightp=2/keyint=240/keyint_min=24/scenecut=40/intra_refresh=0/rc=2pass/mbtree=0/bitrate=5000/ratetol=1.0/qcomp=0.70/qpmin=3/qpmax=69/qpstep=4/cplxblur=20.0/qblur=0.5/ip_ratio=1.40/pb_ratio=1.30/aq=2: 1.00
    Language : English
    Default : Yes
    Forced : No
    Audio #1
    ID : 2
    Format : AC-3
    Format/Info : Audio Coding 3
    Mode extension : CM (complete main)
    Format settings, Endianness : Big
    Codec ID : A_AC3
    Duration : 1h 20mn
    Bit rate mode : Constant
    Bit rate : 192 Kbps
    Channel(s) : 2 channels
    Channel positions : Front: L R
    Sampling rate : 48.0 KHz
    Bit depth : 16 bits
    Compression mode : Lossy
    Stream size : 111 MiB (3%)
    Title : Dub Пифагор
    Language : Russian
    Default : Yes
    Forced : No
    Audio #2
    ID : 3
    Format : AC-3
    Format/Info : Audio Coding 3
    Mode extension : CM (complete main)
    Format settings, Endianness : Big
    Codec ID : A_AC3
    Duration : 1h 20mn
    Bit rate mode : Constant
    Bit rate : 640 Kbps
    Channel(s) : 6 channels
    Channel positions : Front: L C R, Side: L R, LFE
    Sampling rate : 48.0 KHz
    Bit depth : 16 bits
    Compression mode : Lossy
    Stream size : 368 MiB (11%)
    Language : English
    Default : No
    Forced : No
    Text
    ID : 4
    Format : UTF-8
    Codec ID : S_TEXT/UTF8
    Codec ID/Info : UTF-8 Plain Text
    Language : English
    Default : Yes
    Forced : No
    Menu
    00: 00: 00.000 : : 00: 00: 00.000
    00: 04: 26.099 : : 00: 04: 26.099
    00: 16: 31.073 : : 00: 16: 31.073
    00: 26: 01.059 : : 00: 26: 01.059
    00: 38: 25.553 : : 00: 38: 25.553
    00: 49: 28.549 : : 00: 49: 28.549
    00: 58: 22.499 : : 00: 58: 22.499
    01: 09: 33.502 : : 01: 09: 33.503
    01: 18: 07.099 : : 01: 18: 07.099

    Скриншоты для ознакомления



    Все одноименные релизы в Клубе
    Время раздачи: 24/7 (до появления первых 3-5 скачавших)

    Онлайн видео Скуби-Ду! Под Куполом Цирка


    Скуби-Ду! Под Куполом Цирка / Big Top Scooby-Doo! (2012) BDRip [H.264 / 1080p-LQ] торрент скачать бесплатно
    Рейтинг →
     (голосов: 1, оценка 4/5, голосовать можно 1 раз )

    Другие торренты по теме:

  • Скуби-Ду: Франкен-монстр / Scooby-Doo! Frankencreepy (2014) BDRemux (1080p) скачать через торрент бесплатно
  • Скуби-Ду и KISS: Тайна рок-н-ролла / Scooby-Doo! And Kiss: Rock and Roll Mystery (2015) BDRip [H.264 / 720p] скачать через торрент бесплатно
  • Скуби-Ду и KISS: Тайна рок-н-ролла / Scooby-Doo! And Kiss: Rock and Roll Mystery (2015) HDRip скачать через торрент бесплатно
  • Скуби-Ду и KISS: Тайна рок-н-ролла / Scooby-Doo! And Kiss: Rock and Roll Mystery (2015) BDRip [H.264 / 1080p] скачать через торрент бесплатно
  • Скуби-Ду и KISS: Тайна рок-н-ролла / Scooby-Doo! And Kiss: Rock and Roll Mystery (2015) BDRemux [H.264 / 1080p] скачать через торрент бесплатно
  • Скуби-Ду и KISS: Тайна рок-н-ролла / Scooby-Doo! And Kiss: Rock and Roll Mystery (2015) BDRip [576p] iPad скачать через торрент бесплатно
  • Скуби-Ду и KISS: Тайна рок-н-ролла / Scooby-Doo! And Kiss: Rock and Roll Mystery (2015) BDRip [720p] ATV скачать через торрент бесплатно
  • Скуби-Ду и KISS: Тайна рок-н-ролла / Scooby-Doo! And Kiss: Rock and Roll Mystery (2015) BDRip [1080p] ATV скачать через торрент бесплатно


    • Комментарии (0):

      Информация

      Информация

        Посетители, находящиеся в группе Гости, не могут оставлять комментарии в данной новости.