Подписывайся на наш канал в Telegram https://t.me/torrentok и получи доступ к торрентам без ограничений!
.
Авторизация | Регистрация
bitok.xyz
Торрент скачать бесплатно Мультфильмы торрент скачать Ледяная принцесса / Tabaluga (2018) WEB-DL [H.264 / 1080p-LQ] торрент скачать бесплатно


    Ледяная принцесса / Tabaluga (2018) WEB-DL [H.264 / 1080p-LQ] торрент скачать бесплатно

    Дата: 22-02-2020, 05:00 | .torrent скачали: 0

    Ледяная принцесса / Tabaluga (2018) WEB-DL [H.264 / 1080p-LQ]Производство: Германия, Канада, Awesometown Entertainment, Deutsche Columbia Pictures Film Produktion
    Жанр: Музыкальный, Приключения, Комедия
    Режиссер: Свен Унтервальдт мл.

    Описание

    Там, где круглый год лежат снега, а небо озаряет северное сияние, живет Ледяная принцесса Лилли с голубыми, как древний лед, волосами. Однажды Лилли и её друг, полярный медведь Лимбо, встречают юного дракона, который не умеет извергать пламя. Лилли обещает помочь ему. Но путь, который их ждет, будет не из легких, впереди новых друзей ждет немало приключений и опасных испытаний.

    Возраст: 6+ (зрителям, достигшим 6 лет)
    Рейтинг MPAA: PG (рекомендуется присутствие родителей)
    Дата мировой премьеры: 25 ноября 2018
    Дата российской премьеры: 25 января 2020, Наше Кино 3D
    Релиз от: BLUEBIRD
    Продолжительность: 01: 30: 19
    Качество видео: WEB-DL
    Перевод: Дублированный (iTunes)
    Субтитры: отсутствуют
    Видео: AVC/H.264, 1920x1040, 4958 Kbps
    Аудио: AC-3, 6 ch, 384 Kbps - русский (DUB iTunes)
    Общее
    Уникальный идентификатор : 254263801325871005323166836153360444573 (0xBF496D47A96B4EF7B99E6F0C1409EC9D)
    Полное имя : TABALUGA_2018_WEB-DL_1080p-BLUEBIRD.mkv
    Формат : Matroska
    Версия формата : Version 4/Version 2
    Размер файла : 3, 44 Гбайт
    Продолжительность : 1 ч. 30 м.
    Общий поток : 5450 Кбит/сек
    Название фильма : TABALUGA_2018_WEB-DL_1080p-BLUEBIRD
    Дата кодирования : UTC 2020-02-20 19: 11: 27
    Программа кодирования : mkvmerge v6.9.1 (\'Blue Panther\') 32bit built on Apr 18 2014 18: 15: 44
    Библиотека кодирования : libebml v1.3.0 + libmatroska v1.4.1
    Обложка : Yes
    Attachments : cover.png
    Видео
    Идентификатор : 1
    Формат : AVC
    Формат/Информация : Advanced Video Codec
    Профиль формата : High@L4
    Параметр CABAC формата : Да
    Параметр ReFrames формата : 4 кадра
    Идентификатор кодека : V_MPEG4/ISO/AVC
    Продолжительность : 1 ч. 30 м.
    Битрейт : 4958 Кбит/сек
    Ширина : 1920 пикселей
    Высота : 1040 пикселей
    Соотношение сторон : 1, 85: 1
    Режим частоты кадров : Постоянный
    Частота кадров : 24, 000 кадра/сек
    Цветовое пространство : YUV
    Субдискретизация насыщенности : 4: 2: 0
    Битовая глубина : 8 бит
    Тип развёртки : Прогрессивная
    Бит/(Пиксели*Кадры) : 0.103
    Размер потока : 3, 13 Гбайт (91%)
    Заголовок : TABALUGA_2018_WEB-DL_1080p-BLUEBIRD
    Язык : English
    Default : Да
    Forced : Нет
    Цветовой диапазон : Limited
    Основные цвета : BT.709
    Характеристики трансфера : BT.709
    Коэффициенты матрицы : BT.709
    Аудио
    Идентификатор : 2
    Формат : AC-3
    Формат/Информация : Audio Coding 3
    Расширение режима : CM (complete main)
    Параметр Endianness формата : Big
    Идентификатор кодека : A_AC3
    Продолжительность : 1 ч. 30 м.
    Вид битрейта : Постоянный
    Битрейт : 384 Кбит/сек
    Каналы : 6 каналов
    Расположение каналов : Front: L C R, Side: L R, LFE
    Частота : 48, 0 КГц
    Частота кадров : 31, 250 кадров/сек (1536 spf)
    Битовая глубина : 16 бит
    Метод сжатия : С потерями
    Размер потока : 248 Мбайт (7%)
    Заголовок : DUB DD 5.1 @ 384 kbps (iTunes)
    Язык : Russian
    Default : Да
    Forced : Нет
    Меню
    00: 00: 00.000 : en: Глава 1
    00: 09: 00.625 : en: Глава 2
    00: 15: 51.166 : en: Глава 3
    00: 24: 22.416 : en: Глава 4
    00: 33: 14.916 : en: Глава 5
    00: 41: 18.082 : en: Глава 6
    00: 49: 07.665 : en: Глава 7
    00: 57: 06.706 : en: Глава 8
    01: 05: 10.622 : en: Глава 9
    01: 13: 39.538 : en: Глава 10
    01: 22: 36.079 : en: Глава 11

    Скриншоты для ознакомления



    Все одноименные релизы в Клубе
    Время раздачи: с 11: 00 до 01: 00 (до появления первых 3-5 скачавших)

    Онлайн видео Ледяная принцесса


    Ледяная принцесса / Tabaluga (2018) WEB-DL [H.264 / 1080p-LQ] торрент скачать бесплатно
    Рейтинг →
     (голосов: 1, оценка 4/5, голосовать можно 1 раз )

    Другие торренты по теме:

  • Сергей Садов | Ледяная принцесса [Книги 1-2] (2017) [MP3]
  • Ледяная принцесса / Tabaluga (2018) BDRip [H.264 / 1080p] [PR]
  • Ледяная принцесса / Tabaluga (2018) BDRip [H.264 / 720p] [PR]


    • Комментарии (0):

      Информация

      Информация

        Посетители, находящиеся в группе Гости, не могут оставлять комментарии в данной новости.