ВАЖНО! Сайт скоро заблокируют! Подписывайся на наш канал в Telegram https://t.me/torrentok и получи доступ к торрентам без ограничений!
.
Авторизация | Регистрация
bitok.xyz
Торрент скачать бесплатно Мультфильмы торрент скачать Холодное сердце 2 / Frozen II (2019) BDRip [H.265 / 1080p-LQ] [10-bit] торрент скачать бесплатно


    Холодное сердце 2 / Frozen II (2019) BDRip [H.265 / 1080p-LQ] [10-bit] торрент скачать бесплатно

    Дата: 22-02-2020, 05:00 | .torrent скачали: 0

    Холодное сердце 2 / Frozen II (2019) BDRip [H.265 / 1080p-LQ] [10-bit]Производство: США/Walt Disney Animation Studios, Walt Disney Pictures
    Жанр: мультфильм, мюзикл, фэнтези, комедия, приключения, семейный
    Режиссер: Крис Бак, Дженнифер Ли

    Описание
    Анна, Эльза, Кристоф, его верный олень Свен и никогда не унывающий снеговик Олаф должны будут покинуть уютное королевство Эренделл и отправиться ещё дальше на север, в путешествие, которое приведет их к истокам древних легенд и поможет раскрыть тайны, касающиеся прошлого их родной страны.

    Возраст: 6+ (зрителям, достигшим 6 лет)
    Рейтинг MPAA: PG (рекомендуется присутствие родителей)
    Дата мировой премьеры: 7 ноября 2019
    Дата российской премьеры: 28 ноября 2019, WDSSPR
    Релиз от: Mr. Fox (HEVC-CLUB)
    Продолжительность: 01: 43: 14
    Качество видео: BDRip
    Перевод: Дублированный (iTunes)
    Язык озвучки Русский, украинский, английский
    Субтитры: Русские (полные, SDH), английские (полные, SDH)
    Видео: HEVC/H.265, 1920x804, ~5292 Kbps
    Аудио 1: AC3, 6 ch, 384 Kbps - Русский, дублированный
    Аудио 2: AC3, 2 ch, 192 Kbps - Украинский, дублированный (Line)
    Аудио 3: AC3, 6 ch, 640 Kbps - Английский
    Общее
    Уникальный идентификатор : 292323992120206757248203737632181042153 (0xDBEB8D90AB130F89EF59E5CBCF87BBE9)
    Полное имя : R: Frozen II (2019) BDRip 1080p HEVC.mkv
    Формат : Matroska
    Версия формата : Version 4/Version 2
    Размер файла : 4, 70 Гбайт
    Продолжительность : 1 ч. 43 м.
    Общий поток : 6511 Кбит/сек
    Название фильма : Frozen II (2019)
    Дата кодирования : UTC 2020-02-20 04: 38: 01
    Программа кодирования : mkvmerge v43.0.0 (\'The Quartermaster\') 64-bit
    Библиотека кодирования : libebml v1.3.10 + libmatroska v1.5.2
    Обложка : Yes
    Attachments : cover.jpg
    Видео
    Идентификатор : 1
    Формат : HEVC
    Формат/Информация : High Efficiency Video Coding
    Профиль формата : Main10@L4.1@High
    Идентификатор кодека : V_MPEGH/ISO/HEVC
    Продолжительность : 1 ч. 43 м.
    Битрейт : 5292 Кбит/сек
    Ширина : 1920 пикселей
    Высота : 804 пикселя
    Соотношение сторон : 2, 40: 1
    Режим частоты кадров : Постоянный
    Частота кадров : 23, 976 (23976/1000) кадра/сек
    Частота кадров в оригинале : 23, 976 (24000/1001) кадра/сек
    Цветовое пространство : YUV
    Субдискретизация насыщенности : 4: 2: 0
    Битовая глубина : 10 бит
    Бит/(Пиксели*Кадры) : 0.143
    Размер потока : 3, 82 Гбайт (81%)
    Библиотека кодирования : x265 3.2.1+1-b5c86a64bbbe: WindowsMSVC 192364 bit 10bit
    Настройки программы : cpuid=1111039/frame-threads=3/numa-pools=12/wpp/no-pmode/no-pme/no-psnr/no-ssim/log-level=2/input-csp=1/input-res=1920x804/interlace=0/total-frames=131275/level-idc=41/high-tier=1/uhd-bd=0/ref=5/no-allow-non-conformance/no-repeat-t_heads/annexb/no-aud/no-hrd/info/hash=0/no-temporal-layers/open-gop/min-keyint=23/keyint=240/gop-lookahead=0/bframes=12/b-adapt=2/b-pyramid/bframe-bias=0/rc-lookahead=60/lookahead-slices=4/scenecut=40/radl=0/no-splice/no-intra-refresh/ctu=32/min-cu-size=8/rect/amp/max-tu-size=32/tu-inter-depth=4/tu-intra-depth=4/limit-tu=1/rdoq-level=2/dynamic-rd=0.00/no-ssim-rd/signhide/no-tskip/nr-intra=0/nr-inter=0/no-constrained-intra/no-strong-intra-smoothing/max-merge=4/limit-refs=2/limit-modes/me=3/subme=7/merange=57/temporal-mvp/no-hme/weightp/weightb/no-analyze-src-pics/deblock=-3: -3/no-sao/no-sao-non-deblock/rd=6/selective-sao=0/no-early-skip/no-rskip/no-fast-intra/no-tskip-fast/no-cu-lossless/no-b-intra/no-splitrd-skip/rdpenalty=0/psy-rd=2.00/psy-rdoq=1.00/no-rd-refine/no-lossless/cbqpoffs=0/crqpoffs=0/rc=crf/crf=19.0/qcomp=0.60/qpstep=4/stats-write=0/stats-read=0/vbv-maxrate=50000/vbv-bufsize=50000/vbv-init=0.9/crf-max=0.0/crf-min=0.0/ipratio=1.40/pbratio=1.30/aq-mode=1/aq-strength=1.00/no-cutree/zone-count=0/no-strict-cbr/qg-size=32/no-rc-grain/qpmax=69/qpmin=0/no-const-vbv/sar=1/overscan=0/videoformat=5/range=0/colorprim=1/transfer=1/colormatrix=1/chromaloc=0/display-window=0/cll=0, 0/min-luma=0/max-luma=1023/log2-max-poc-lsb=8/vui-timing-info/vui-hrd-info/slices=1/no-opt-qp-pps/no-opt-ref-list-length-pps/no-multi-pass-opt-rps/scenecut-bias=0.05/no-opt-cu-delta-qp/no-aq-motion/no-hdr/no-hdr-opt/no-dhdr10-opt/no-idr-recovery-sei/analysis-reuse-level=5/scale-factor=0/refine-intra=0/refine-inter=0/refine-mv=1/refine-ctu-distortion=0/no-limit-sao/ctu-info=0/no-lowpass-dct/refine-analysis-type=0/copy-pic=1/max-ausize-factor=1.0/no-dynamic-refine/no-single-sei/no-hevc-aq/no-svt/no-field/qp-adaptation-range=1.00
    Default : Да
    Forced : Нет
    Цветовой диапазон : Limited
    Основные цвета : BT.709
    Характеристики трансфера : BT.709
    Коэффициенты матрицы : BT.709
    Аудио #1
    Идентификатор : 2
    Формат : AC-3
    Формат/Информация : Audio Coding 3
    Идентификатор кодека : A_AC3
    Продолжительность : 1 ч. 43 м.
    Вид битрейта : Постоянный
    Битрейт : 384 Кбит/сек
    Каналы : 6 каналов
    Расположение каналов : Front: L C R, Side: L R, LFE
    Частота : 48, 0 КГц
    Частота кадров : 31, 250 кадров/сек (1536 SPF)
    Битовая глубина : 16 бит
    Метод сжатия : С потерями
    Размер потока : 283 Мбайт (6%)
    Заголовок : iTunes
    Язык : Russian
    ServiceKind/String : Complete Main
    Default : Да
    Forced : Да
    Аудио #2
    Идентификатор : 3
    Формат : AC-3
    Формат/Информация : Audio Coding 3
    Идентификатор кодека : A_AC3
    Продолжительность : 1 ч. 43 м.
    Вид битрейта : Постоянный
    Битрейт : 192 Кбит/сек
    Каналы : 2 канала
    Расположение каналов : Front: L R
    Частота : 48, 0 КГц
    Частота кадров : 31, 250 кадров/сек (1536 SPF)
    Битовая глубина : 16 бит
    Метод сжатия : С потерями
    Задержка видео : 950 мс.
    Размер потока : 142 Мбайт (3%)
    Заголовок : Line
    Язык : Ukrainian
    ServiceKind/String : Complete Main
    Default : Нет
    Forced : Нет
    Аудио #3
    Идентификатор : 4
    Формат : AC-3
    Формат/Информация : Audio Coding 3
    Идентификатор кодека : A_AC3
    Продолжительность : 1 ч. 43 м.
    Вид битрейта : Постоянный
    Битрейт : 640 Кбит/сек
    Каналы : 6 каналов
    Расположение каналов : Front: L C R, Side: L R, LFE
    Частота : 48, 0 КГц
    Частота кадров : 31, 250 кадров/сек (1536 SPF)
    Битовая глубина : 16 бит
    Метод сжатия : С потерями
    Размер потока : 473 Мбайт (10%)
    Заголовок : Original
    Язык : English
    ServiceKind/String : Complete Main
    Default : Нет
    Forced : Нет
    Текст #1
    Идентификатор : 5
    Формат : UTF-8
    Идентификатор кодека : S_TEXT/UTF8
    Идентификатор кодека/Информация : UTF-8 Plain Text
    Продолжительность : 1 ч. 41 м.
    Битрейт : 72 бит/сек
    ElementCount : 1312
    Размер потока : 53, 9 Кбайт (0%)
    Заголовок : Full
    Язык : Russian
    Default : Нет
    Forced : Нет
    Текст #2
    Идентификатор : 6
    Формат : UTF-8
    Идентификатор кодека : S_TEXT/UTF8
    Идентификатор кодека/Информация : UTF-8 Plain Text
    Продолжительность : 1 ч. 42 м.
    Битрейт : 95 бит/сек
    ElementCount : 1810
    Размер потока : 71, 6 Кбайт (0%)
    Заголовок : SDH
    Язык : Russian
    Default : Нет
    Forced : Нет
    Текст #3
    Идентификатор : 7
    Формат : UTF-8
    Идентификатор кодека : S_TEXT/UTF8
    Идентификатор кодека/Информация : UTF-8 Plain Text
    Продолжительность : 1 ч. 41 м.
    Битрейт : 56 бит/сек
    ElementCount : 1560
    Размер потока : 42, 0 Кбайт (0%)
    Заголовок : Full
    Язык : English
    Default : Нет
    Forced : Нет
    Текст #4
    Идентификатор : 8
    Формат : UTF-8
    Идентификатор кодека : S_TEXT/UTF8
    Идентификатор кодека/Информация : UTF-8 Plain Text
    Продолжительность : 1 ч. 42 м.
    Битрейт : 68 бит/сек
    ElementCount : 1930
    Размер потока : 51, 2 Кбайт (0%)
    Заголовок : SDH
    Язык : English
    Default : Нет
    Forced : Нет
    Меню
    00: 00: 00.000 : en: Chapter 1
    00: 05: 42.592 : en: Chapter 2
    00: 08: 27.716 : en: Chapter 3
    00: 15: 01.400 : en: Chapter 4
    00: 16: 29.655 : en: Chapter 5
    00: 21: 25.117 : en: Chapter 6
    00: 25: 45.252 : en: Chapter 7
    00: 29: 08.914 : en: Chapter 8
    00: 33: 45.023 : en: Chapter 9
    00: 40: 27.216 : en: Chapter 10
    00: 44: 37.925 : en: Chapter 11
    00: 47: 42.318 : en: Chapter 12
    00: 53: 04.515 : en: Chapter 13
    00: 55: 27.241 : en: Chapter 14
    01: 02: 36.711 : en: Chapter 15
    01: 09: 57.527 : en: Chapter 16
    01: 13: 48.382 : en: Chapter 17
    01: 19: 26.637 : en: Chapter 18
    01: 24: 28.146 : en: Chapter 19
    01: 31: 17.263 : en: Chapter 20


    Онлайн видео Холодное сердце 2


    Холодное сердце 2 / Frozen II (2019) BDRip [H.265 / 1080p-LQ] [10-bit] торрент скачать бесплатно
    Рейтинг →
     (голосов: 1, оценка 4/5, голосовать можно 1 раз )

    Другие торренты по теме:

  • Frozen. Free Fall / Холодное Сердце. Звездопад 2.6 [Ru] скачать через торрент бесплатно
  • Холодное сердце (2016) HDTV [H.264 / 1080i] (серии 1-2 из 2)
  • Холодное сердце (2016) HDTVRip [H.264] (серии 1-2 из 2)
  • Холодное сердце / Frozen (2013) BDRip [H.264 / 1080p] [handmade 16:9]
  • Дмитрий Браславский | Мерцание эльфийского портала, Холодное сердце Далрока [2 книги] (2012-2015) [DOC, PDF]
  • Холодное сердце / Das kalte Herz (2016) HDRip [AD]
  • Холодное сердце / Das Kalte Herz (1950) HDRip [H.264] [AVO]
  • Yuletide Legends 2: Frozen Hearts / Святочные истории 2: Холодное сердце (2017) [Ru] (1.0) Unofficial [Collectors Edition / Коллекционное издание]


    • Комментарии (0):

      Информация

      Информация

        Посетители, находящиеся в группе Гости, не могут оставлять комментарии в данной новости.

        ↓ Меню




        Популярное

        Роботы-пожарные / Fire Robo (2016) WEB-DLRip [H.264 / 720p-LQ] (сезон 1, серии 1-26 из 26) [Обновляемая]

        (скачиваний: 5)
        Сергей Матвеев | Полный курс английского языка для лентяев (2016) [PDF]

        (скачиваний: 4)
        Жила-была царевна (2015-2019) WEB-DLRip [H.264 / 720p-LQ] (сезон 1, серии 1-18 из 26) [Обновляемая]

        (скачиваний: 3)
        Gekijouban KanColle | Kantai Collection Movie | Fleet Girls Collection: Movie Sequence| Коллекционная флотилия на большом экране [2016, Movie] BDrip 720p 10bit raw

        (скачиваний: 3)
        Роберт Кийосаки | Богатый папа, бедный папа для подростков (2014) [PDF, FB2]

        (скачиваний: 3)
        Серия книг | Образовательная манга (2010 - 2015) [PDF]

        (скачиваний: 3)
        Анна Зайцева, Анастасия Дубасова | Чудесный пластилин: лепим вместе с детьми (2011) [PDF]

        (скачиваний: 2)
        Королевская академия / Regal Academy (2016) SATRip [H.264] (Сезон 1, 26 серий из 26) [UKR]

        (скачиваний: 2)
        Свинка Пеппа / Peppa Pig (2004-2012) SATRip (1-4 сезоны: 208 серий из 209) скачать через торрент бесплатно

        (скачиваний: 2)
        Металионы / Metalions (2018-2019) WEB-DLRip [H.264 / 720p-LQ] (сезон 1, серии 1-52 из 52) [Обновляемая]

        (скачиваний: 2)