Подписывайся на наш канал в Telegram https://t.me/torrentok и получи доступ к торрентам без ограничений!
.
Авторизация | Регистрация
bitok.xyz
Торрент скачать бесплатно Мультфильмы торрент скачать Haiyore! Nyaruko-san F | Ползучий Хаос! Няруко-Сан [ТВ-1] [2012, TV, 12 ep + 1 OVA] BDRip 1080p 10-bit raw+rus торрент скачать бесплатно


    Haiyore! Nyaruko-san F | Ползучий Хаос! Няруко-Сан [ТВ-1] [2012, TV, 12 ep + 1 OVA] BDRip 1080p 10-bit raw+rus торрент скачать бесплатно

    Дата: 22-02-2020, 05:00 | .torrent скачали: 0

    Haiyore! Nyaruko-san F | Ползучий Хаос! Няруко-Сан [ТВ-1] [2012, TV, 12 ep + 1 OVA] BDRip 1080p 10-bit raw+rusТип: TV
    Жанр: Комедия, Романтика
    Продолжительность: 12 Эпизодов по 23 Мин.; 1 Эпизод 14 Мин.
    Количество серий: 13 Эпизодов
    Дата выпуска: c10.04.2012 по26.06.2012
    Автор оригинала: Айсора Манта
    Режиссер: Нагасава Цуёси
    Производство: XEBEC/ Япония

    World-Art |AniDB |MyAnimelist |Shikimori

    Описание

    Я — Ньярлатотеп, Ползучий Хаос, всегда улыбаюсь рядом с вами!
    Но для краткости вы можете называть её Няруко. Один за другим Великие Древние прибывают на Землю. Но не волнуйтесь — они прибыли не для завоеваний, а для защиты простого японского парня Махиро Ясаки. Ньярлатотеп принял облик энергичной Няруко, жуткий бесформенный Ктугха — застенчивой милашки Куко, а паучий бог Алтах-Наха превратился в рассудительную красавицу Атоко. Вот такие вот метаморфозы.
    На бедного Махиро Ясаку нацелились дьявольские боссы инопланетной индустрии развлечений, которые хотят похитить парня и заставить сниматься в яое! Так что защита ему очень понадобится. А он в качестве благодарности поселил Древних у себя дома и понемногу помогает им привыкать к людской жизни. В общем, жизнь у парня началась весёлая — эти девушки никому не дадут заскучать!
    Автор: Sfairat ©Shikimori
    Качество Видео: BDRip
    TV
    Видео: AVC/x264 , 1920x1080, 23.976 fps, 5 706 kb/s, 0.115 bpp10-bit
    OVA-1
    Видео: AVC/x264 , 1920x1080, 23.976 fps, 10.8 Mb/s, 0.218 bpp8-bit
    Язык Озвучки: Японский и Русский
    Озвучка: Одноголосая, Двухголосая закадровая
    TV
    Аудио №1: AAC2.0 , 48.0 kHz, 192 kb/s(Shiza Project) |Язык:
    Аудио №2: AAC2.0 , 48.0 kHz, 192 kb/s(AniFilm) |Язык:
    Аудио №3: AC32.0 , 48.0 kHz, 192 kb/s(GetSmart) |Язык:
    Аудио №4: AC32.0 , 48.0 kHz, 192 kb/s(AniMedia) |Язык:
    Аудио №5: AAC2.0 , 48.0 kHz, 192 kb/s(AniDub) |Язык:
    Аудио №6: AAC2.0 , 48.0 kHz, 192 kb/s(OpenDub) |Язык:
    Аудио №7: FLAC2.0 , 48.0 kHz, 1 496 kb/ss 24-Bit(Original) |Язык:
    OVA-1
    Аудио №1: FLAC2.0 , 48.0 kHz, 1 527 kb/s 24-Bit(Original) |Язык:
    Субтитры: Надписи/Полные(YakuSub Studio)

    Скриншоты для ознакомления





    01. Like a Close Encounter of the Third Kind (Близкие Контакты Третьего Вида, Типа)
    02. Farewell, Nyaruko (Прощай, Няруко-сан)
    03. Yasaka Mahiro Wants to Live in Peace (Ясака Махиро Хочет Жить Спокойно)
    04. Mother`s Attack! (Мамочки Наступают!)
    05. Let`s Go Great Conspiracy X! (Понеслась, Великий Заговор X!)
    06. The War In The Market (Бойня на Рынке)
    07. Blue Coral Reef (Голубой Коралловый Риф)
    08. Nyarlko`s Exciting High School (Захватывающая Школьная Жизнь Няруко)
    09. I Am Him and He Is Me (Я - это Он, а Он это я)
    10. The Ruler of Super Space-Time (Властитель Пространства - Времени)
    11. Lost Girl From The Stars (Потерявшееся Дитя Звёзд)
    12. He Waits, Dreaming (Он Ожидает, Мечту)
    13. How to Defeat a Kind Enemy (Гуманный Способ Одолеть Врагов)

    1) Haiyore! Nyaruko-San F(Эта Раздача)
    2) Haiyore! Nyaruko-San W


    General
    Unique ID : 272706661421172502131547902483888913743 (0xCD29647C9DB897490D67BE9625ACBD4F)
    Complete name : J: АнимеПолзучий Хаос! Няруко-Сан (Haiyore! Nyaruko-San) BDRip (2012-2015)Haiyore! Nyaruko-San F1 (TV-1). Like a Close Encounter of the Third Kind (Близкие Контакты Третьего Вида, Типа).mkv
    Format : Matroska
    Format version : Version 4
    File size : 1.40 GiB
    Duration : 23 min 56 s
    Overall bit rate mode : Variable
    Overall bit rate : 8 381 kb/s
    Encoded date : UTC 2020-02-18 08: 15: 51
    Writing application : mkvmerge v43.0.0 (\'The Quartermaster\') 64-bit
    Writing library : libebml v1.3.10 + libmatroska v1.5.2
    Attachments : arialcaps.ttf/Brady Bunch.ttf/calibri.ttf/Chlorinez.ttf/georgia.ttf/georgia_0.ttf/icedeart.ttf/Illusion_-.ttf/InterNuT Round.ttf/InterNuT.ttf/Jungle LIFE.ttf/KabelC-Ultra.otf/linkin.ttf/Malahit Bold.ttf/SCAR6.TTF/y2k.ttf/a_AlbionicTitulInfl.TTF/AGOR___.TTF/ALIEN5.TTF/ANA-ONEIROPARMENI82.TTF/arial.ttf/arial_0.ttf
    Video
    ID : 1
    Format : AVC
    Format/Info : Advanced Video Codec
    Format profile : High10@L4.1
    Format settings : CABAC/4 Ref Frames
    Format settings, CABAC : Yes
    Format settings, Reference : 4 frames
    Codec ID : V_MPEG4/ISO/AVC
    Duration : 23 min 56 s
    Bit rate : 5 706 kb/s
    Width : 1 920 pixels
    Height : 1 080 pixels
    Display aspect ratio : 16: 9
    Frame rate mode : Constant
    Frame rate : 23.976 (24000/1001) FPS
    Color space : YUV
    Chroma subsampling : 4: 2: 0
    Bit depth : 10 bits
    Scan type : Progressive
    Bits/(Pixel*Frame) : 0.115
    Stream size : 977 MiB (68%)
    Writing library : x264 core 125 r2200 999b753
    Encoding settings : cabac=1/ref=4/deblock=1: -2: -2/analyse=0x3: 0x133/me=umh/subme=9/psy=1/psy_rd=0.70: 0.00/mixed_ref=1/me_range=24/chroma_me=1/trellis=2/8x8dct=1/cqm=0/deadzone=21, 11/fast_pskip=1/chroma_qp_offset=-2/threads=12/lookahead_threads=2/sliced_threads=0/nr=0/decimate=0/interlaced=0/bluray_compat=0/constrained_intra=0/bframes=8/b_pyramid=2/b_adapt=2/b_bias=0/direct=3/weightb=1/open_gop=0/weightp=2/keyint=250/keyint_min=23/scenecut=40/intra_refresh=0/rc=crf/mbtree=0/crf=16.0/qcomp=0.70/qpmin=15/qpmax=52/qpstep=4/ip_ratio=1.40/pb_ratio=1.30/aq=1: 0.90
    Language : Japanese
    Default : Yes
    Forced : No
    Audio #1
    ID : 2
    Format : AAC LC
    Format/Info : Advanced Audio Codec Low Complexity
    Codec ID : A_AAC-2
    Duration : 23 min 56 s
    Bit rate : 192 kb/s
    Channel(s) : 2 channels
    Channel layout : L R
    Sampling rate : 48.0 kHz
    Frame rate : 46.875 FPS (1024 SPF)
    Compression mode : Lossy
    Stream size : 32.9 MiB (2%)
    Title : Shiza Project (ShadMG Лизавета)
    Language : Russian
    Default : Yes
    Forced : No
    Audio #2
    ID : 3
    Format : AAC LC
    Format/Info : Advanced Audio Codec Low Complexity
    Codec ID : A_AAC-2
    Duration : 23 min 56 s
    Bit rate : 192 kb/s
    Channel(s) : 2 channels
    Channel layout : L R
    Sampling rate : 48.0 kHz
    Frame rate : 46.875 FPS (1024 SPF)
    Compression mode : Lossy
    Stream size : 32.9 MiB (2%)
    Title : AniFilm (DemonOFmooN MezIdA)
    Language : Russian
    Default : No
    Forced : No
    Audio #3
    ID : 4
    Format : AC-3
    Format/Info : Audio Coding 3
    Commercial name : Dolby Digital
    Codec ID : A_AC3
    Duration : 23 min 56 s
    Bit rate mode : Constant
    Bit rate : 192 kb/s
    Channel(s) : 2 channels
    Channel layout : L R
    Sampling rate : 48.0 kHz
    Frame rate : 31.250 FPS (1536 SPF)
    Compression mode : Lossy
    Stream size : 32.9 MiB (2%)
    Title : GetSmart (Persona99)
    Language : Russian
    Service kind : Complete Main
    Default : No
    Forced : No
    Audio #4
    ID : 5
    Format : AC-3
    Format/Info : Audio Coding 3
    Commercial name : Dolby Digital
    Codec ID : A_AC3
    Duration : 23 min 56 s
    Bit rate mode : Constant
    Bit rate : 192 kb/s
    Channel(s) : 2 channels
    Channel layout : L R
    Sampling rate : 48.0 kHz
    Frame rate : 31.250 FPS (1536 SPF)
    Compression mode : Lossy
    Stream size : 32.9 MiB (2%)
    Title : AniMedia (Tray Angel)
    Language : Russian
    Service kind : Complete Main
    Default : No
    Forced : No
    Audio #5
    ID : 6
    Format : AAC LC
    Format/Info : Advanced Audio Codec Low Complexity
    Codec ID : A_AAC-2
    Duration : 23 min 56 s
    Bit rate : 192 kb/s
    Channel(s) : 2 channels
    Channel layout : L R
    Sampling rate : 48.0 kHz
    Frame rate : 46.875 FPS (1024 SPF)
    Compression mode : Lossy
    Stream size : 32.9 MiB (2%)
    Title : AniDub (Wolfys)
    Language : Russian
    Default : No
    Forced : No
    Audio #6
    ID : 7
    Format : AAC LC
    Format/Info : Advanced Audio Codec Low Complexity
    Codec ID : A_AAC-2
    Duration : 23 min 56 s
    Bit rate : 192 kb/s
    Channel(s) : 2 channels
    Channel layout : L R
    Sampling rate : 48.0 kHz
    Frame rate : 46.875 FPS (1024 SPF)
    Compression mode : Lossy
    Stream size : 32.9 MiB (2%)
    Title : OpenDub (Мирра JeFerson)
    Language : Russian
    Default : No
    Forced : No
    Audio #7
    ID : 8
    Format : FLAC
    Format/Info : Free Lossless Audio Codec
    Codec ID : A_FLAC
    Duration : 23 min 56 s
    Bit rate mode : Variable
    Bit rate : 1 496 kb/s
    Channel(s) : 2 channels
    Channel layout : L R
    Sampling rate : 48.0 kHz
    Frame rate : 11.719 FPS (4096 SPF)
    Bit depth : 24 bits
    Compression mode : Lossless
    Stream size : 256 MiB (18%)
    Title : Original
    Writing library : libFLAC 1.2.1 (UTC 2007-09-17)
    Language : Japanese
    Default : No
    Forced : No
    Text #1
    ID : 9
    Format : ASS
    Codec ID : S_TEXT/ASS
    Codec ID/Info : Advanced Sub Station Alpha
    Duration : 22 min 24 s
    Bit rate : 244 b/s
    Count of elements : 167
    Compression mode : Lossless
    Stream size : 40.2 KiB (0%)
    Title : Forced (YakuSub Studio)
    Language : Russian
    Default : Yes
    Forced : No
    Text #2
    ID : 10
    Format : ASS
    Codec ID : S_TEXT/ASS
    Codec ID/Info : Advanced Sub Station Alpha
    Duration : 23 min 46 s
    Bit rate : 397 b/s
    Count of elements : 548
    Compression mode : Lossless
    Stream size : 69.2 KiB (0%)
    Title : Full (YakuSub Studio)
    Language : Russian
    Default : No
    Forced : No



    General
    Unique ID : 339448100856728946362457978105587828158 (0xFF5F5381E0D6F7D723D5027F112005BE)
    Complete name : J: АнимеПолзучий Хаос! Няруко-Сан (Haiyore! Nyaruko-San) BDRip (2012-2015)Haiyore! Nyaruko-San F13 (OVA-1). How to Defeat a Kind Enemy (Гуманный Способ Одолеть Врагов).mkv
    Format : Matroska
    Format version : Version 4
    File size : 1.27 GiB
    Duration : 14 min 44 s
    Overall bit rate mode : Variable
    Overall bit rate : 12.4 Mb/s
    Encoded date : UTC 2020-02-20 07: 16: 43
    Writing application : mkvmerge v43.0.0 (\'The Quartermaster\') 64-bit
    Writing library : libebml v1.3.10 + libmatroska v1.5.2
    Video
    ID : 1
    Format : AVC
    Format/Info : Advanced Video Codec
    Format profile : High@L4.1
    Format settings : CABAC/4 Ref Frames
    Format settings, CABAC : Yes
    Format settings, Reference : 4 frames
    Codec ID : V_MPEG4/ISO/AVC
    Duration : 14 min 44 s
    Bit rate : 10.8 Mb/s
    Width : 1 920 pixels
    Height : 1 080 pixels
    Display aspect ratio : 16: 9
    Frame rate mode : Constant
    Frame rate : 23.976 (24000/1001) FPS
    Color space : YUV
    Chroma subsampling : 4: 2: 0
    Bit depth : 8 bits
    Scan type : Progressive
    Bits/(Pixel*Frame) : 0.218
    Stream size : 1.12 GiB (88%)
    Writing library : x264 core 146 r2538 121396c
    Encoding settings : cabac=1/ref=4/deblock=1: 0: 0/analyse=0x3: 0x133/me=umh/subme=9/psy=1/psy_rd=0.80: 0.00/mixed_ref=1/me_range=32/chroma_me=1/trellis=2/8x8dct=1/cqm=0/deadzone=21, 11/fast_pskip=1/chroma_qp_offset=-4/threads=4/lookahead_threads=1/sliced_threads=0/nr=0/decimate=0/interlaced=0/bluray_compat=0/constrained_intra=0/bframes=5/b_pyramid=2/b_adapt=2/b_bias=0/direct=1/weightb=1/open_gop=0/weightp=2/keyint=240/keyint_min=23/scenecut=40/intra_refresh=0/rc_lookahead=50/rc=crf/mbtree=1/crf=15.0/qcomp=0.70/qpmin=10/qpmax=42/qpstep=4/vbv_maxrate=50000/vbv_bufsize=50000/crf_max=0.0/nal_hrd=none/filler=0/ip_ratio=1.40/aq=1: 0.90
    Language : Japanese
    Default : Yes
    Forced : No
    Audio
    ID : 2
    Format : FLAC
    Format/Info : Free Lossless Audio Codec
    Codec ID : A_FLAC
    Duration : 14 min 44 s
    Bit rate mode : Variable
    Bit rate : 1 527 kb/s
    Channel(s) : 2 channels
    Channel layout : L R
    Sampling rate : 48.0 kHz
    Frame rate : 11.719 FPS (4096 SPF)
    Bit depth : 24 bits
    Compression mode : Lossless
    Stream size : 161 MiB (12%)
    Title : Original
    Writing library : libFLAC 1.3.1 (UTC 2014-11-25)
    Language : Japanese
    Default : Yes
    Forced : No
    Text
    ID : 3
    Format : ASS
    Codec ID : S_TEXT/ASS
    Codec ID/Info : Advanced Sub Station Alpha
    Duration : 14 min 41 s
    Bit rate : 535 b/s
    Count of elements : 376
    Compression mode : Lossless
    Stream size : 57.6 KiB (0%)
    Title : Full (YakuSub Studio)
    Language : Russian
    Default : Yes
    Forced : No

    Время раздачи: С 8: 00 по 18: 00 МСК (до появления первых 3-5 скачавших)
    Понравился релиз? Ставь Оценку и нажми Спасибо
    Это серьёзно меня мотивирует делать подобные релизы.
    Если всем сердцем любишь аниме - подключайся и оставайся на раздаче максимально долго!
    За ретайминг звука и субтитров огромное спасибо DS2902
    Полный список ретаймов


    Онлайн видео Haiyore! Nyaruko-san F


    Haiyore! Nyaruko-san F | Ползучий Хаос! Няруко-Сан [ТВ-1] [2012, TV, 12 ep + 1 OVA] BDRip 1080p 10-bit raw+rus торрент скачать бесплатно
    Рейтинг →
     (голосов: 1, оценка 5/5, голосовать можно 1 раз )

    Другие торренты по теме:

  • Haiyore! Nyaruko-san F | Няруко-сан: Крадущийся хаос F [2015, OVA, 1 ep.] BDrip 720p raw скачать через торрент бесплатно
  • Haiyore! Nyaruko-san W | Няруко-сан: Крадущийся хаос [TV-2] [2013, TV, 12 эп. + 2 OVA] BDrip 1080p raw скачать через торрент бесплатно
  • Haiyore! Nyaruko-san F | Няруко-сан: Крадущийся хаос F [2015, OVA, 1 ep.] BDrip 1080p raw скачать через торрент бесплатно
  • Haiyore! Nyaruko-san W | Ползучий Хаос! Няруко-Сан [ТВ-2] [2013, TV, 12 ep + 2 OVA] BDRip 1080p 10-bit raw+rus


    • Комментарии (0):

      Информация

      Информация

        Посетители, находящиеся в группе Гости, не могут оставлять комментарии в данной новости.

        ↓ Меню




        Популярное

        Фиксики против Кработов (2019) WEB-DLRip

        (скачиваний: 134)
        Рик и Морти / Rick and Morty (2015) WEB-DL [H.264 / 1080p] (Сезон 2, серии 1-10 из 10) Сыендук [EN / RU Sub] скачать через торрент бесплатно

        (скачиваний: 109)
        М.Ю. Демидова | ЕГЭ-2020. Физика. 30 типовых вариантов (2020) [PDF]

        (скачиваний: 80)
        Малышарики (2015-2019) WEB-DL [H.264 / 1080p-LQ] (серии 1-154 из 208) [Обновляемая]

        (скачиваний: 68)
        Рик и Морти / Rick and Morty (2013) BDRip [H.264 / 720p-LQ] (сезон 1, серии 1-11 из 11) Сыендук

        (скачиваний: 65)
        Рик и Морти / Rick and Morty (2013) BDRip [H.264 / 1080p] (Сезон 1, серии 1-11 из 11) Сыендук [EN Sub] скачать через торрент бесплатно

        (скачиваний: 46)
        Фиксики против Кработов (2019) WEB-DL [H.264 / 1080p-LQ]

        (скачиваний: 32)
        Свинка Пеппа / Peppa Pig (2004-2012) SATRip (1-4 сезоны: 208 серий из 209) скачать через торрент бесплатно

        (скачиваний: 28)
        Рик и Морти / Rick and Morty (2017) WEBRip [H.264 / 720p-LQ] (Сезон 3, серии 1 из ) Сыендук

        (скачиваний: 26)
        Жила-была царевна (2015-2019) WEB-DLRip [H.264 / 720p-LQ] (сезон 1, серии 1-18 из 26) [Обновляемая]

        (скачиваний: 21)