ВАЖНО! Сайт скоро заблокируют! Подписывайся на наш канал в Telegram https://t.me/torrentok и получи доступ к торрентам без ограничений!
.
Авторизация | Регистрация
bitok.xyz
Торрент скачать бесплатно Мультфильмы торрент скачать Haiyore! Nyaruko-san W | Ползучий Хаос! Няруко-Сан [ТВ-2] [2013, TV, 12 ep + 2 OVA] BDRip 1080p 10-bit raw+rus торрент скачать бесплатно


    Haiyore! Nyaruko-san W | Ползучий Хаос! Няруко-Сан [ТВ-2] [2013, TV, 12 ep + 2 OVA] BDRip 1080p 10-bit raw+rus торрент скачать бесплатно

    Дата: 22-02-2020, 05:00 | .torrent скачали: 1

    Haiyore! Nyaruko-san W | Ползучий Хаос! Няруко-Сан [ТВ-2] [2013, TV, 12 ep + 2 OVA] BDRip 1080p 10-bit raw+rusТип: TV
    Жанр: Комедия, Романтика
    Продолжительность: 12 Эпизодов по 23 Мин.; 1 Эпизод 15 Мин.; 1 Эпизод 27 Мин.
    Количество серий: 14 Эпизодов
    Дата выпуска: c08.04.2013 по01.07.2013
    Автор оригинала: Айсора Манта
    Режиссер: Нагасава Цуёси
    Производство: XEBEC/ Япония

    World-Art |AniDB |MyAnimelist |Shikimori

    Описание

    И кому нужна эта скучная, монотонная школьная жизнь, серые будни и одиночество? Вот и Махиро наконец-таки понял, что с появлением неутомимой троицы инопланетян его жизнь повернулась к лучшему. Нападение злобных пришельцев, чудовищные монстры, постоянная опасность, сексуальные домогательства... нет, не так. Приключения, совместные игры на пляже, комичные ситуации, любовь, в конце концов! И хотя нашим героям еще предстоит разгадать коварный план древней инопланетной расы, спасти межгалактическую библиотеку и остановить пробуждение Великого Зла, все это не помешает их теплым взаимоотношениям и крепкой дружбе.
    Так что вперед, Ползучий Хаос Няруко! Спаси Землю от уничтожения, защити мировые запасы видеоигр, аниме и манги, и завоюй неприступное сердце незадачливого Махиро. Только берегись конкурентов!
    Автор: WildFox ©Shikimori
    Качество Видео: BDRip
    TV
    Видео: AVC/x264 , 1920x1080, 23.976 fps, 5 725 kb/s, 0.115 bpp10-bit
    OVA-2
    Видео: AVC/x264 , 1920x1080, 23.976 fps, 9 410 kb/s, 0.189 bpp8-bit
    OVA-3
    Видео: AVC/x264 , 1920x1080, 23.976 fps, 9 551 kb/s, 0.192 bpp8-bit
    Язык Озвучки: Японский и Русский
    Озвучка: Одноголосая, Двухголосая закадровая
    TV
    Аудио №1: AC32.0 , 48.0 kHz, 192 kb/s(Shiza Project) |Язык:
    Аудио №2: AC32.0 , 48.0 kHz, 192 kb/s(AniFilm) |Язык:
    Аудио №3: AC32.0 , 48.0 kHz, 192 kb/s(AniDub) |Язык:
    Аудио №4: AC32.0 , 48.0 kHz, 192 kb/s(GetSmart) |Язык:
    Аудио №5: FLAC2.0 , 48.0 kHz, 774 kb/s 16-Bit(Original) |Язык:
    OVA-2
    Аудио №1: AAC2.0 , 48.0 kHz, 192 kb/s(Shiza Project) |Язык:
    Аудио №2: FLAC2.0 , 48.0 kHz, 1 463 kb/s 24-Bit(Original) |Язык:
    OVA-3
    Аудио №1: AC32.0 , 48.0 kHz, 192 kb/s(Shiza Project) |Язык:
    Аудио №2: FLAC2.0 , 48.0 kHz, 1 471 kb/s 24-Bit(Original) |Язык:
    Субтитры: Надписи/Полные(YakuSub Studio)

    Скриншоты для ознакомления





    01. Attack on Evil Deity (Атака на Злое Божество)
    02. Celaeno Library War (Библиотечные Войны Келайно)
    03. Super Deity Apocalypse (Апокалипсис Супербожества)
    04. Talent at Love (Талант в Любви)
    05. Say It Isn`t So, Kuuko (Скажи, Что Это не Так, Кууко)
    06. I`ll Try to Act It Out (Я Постараюсь Подыграть)
    07. Color the Pool Red with Blood (Бассейн Цвета Красной Крови)
    08. A Little Love Song (Небольшая Песня о Любви)
    09. High School of the Heat (Школа Накала)
    10. Yuggoth Attacks! (Юггот Атакует!)
    11. A Certain Camp`s Haunted House (Некий Дом с Привидениями в Походе)
    12. Goodbye, Nyarko-san W (Прощай, Няруко-сан W)
    13. Goodbye to W. The Chaos of Love in this Hot Spring (Прощай W. Здравствуйте Страстные Горячие Источники)
    14. Haiyore! Nyaruko-san F OVA (Финал)

    1) Haiyore! Nyaruko-San F
    2) Haiyore! Nyaruko-San W(Эта Раздача)


    General
    Unique ID : 150793384085423013730675945697729118015 (0x7171BFD789142EF0E6FE85F790E0FF3F)
    Complete name : J: АнимеПолзучий Хаос! Няруко-Сан (Haiyore! Nyaruko-San) BDRip (2012-2015)Haiyore! Nyaruko-San W14 (TV-2). Attack on Evil Deity (Атака на Злое Божество).mkv
    Format : Matroska
    Format version : Version 4
    File size : 1.24 GiB
    Duration : 24 min 26 s
    Overall bit rate mode : Variable
    Overall bit rate : 7 293 kb/s
    Encoded date : UTC 2020-02-18 08: 06: 23
    Writing application : mkvmerge v43.0.0 (\'The Quartermaster\') 64-bit
    Writing library : libebml v1.3.10 + libmatroska v1.5.2
    Attachments : Aggloria_Roman.ttf/AGOR__.TTF/ALIEN5.TTF/ANA-ONEIROPARMENI82.TTF/arial.ttf/arial_0.ttf/arialcaps.ttf/Brady Bunch.ttf/calibri.ttf/Chlorinez.ttf/georgia.ttf/georgia_0.ttf/icedeart.ttf/Illusion_-.ttf/InterNuT Round.ttf/InterNuT.ttf/Jungle LIFE.ttf/linkin.ttf/Malahit Bold.ttf/SCAR6.TTF/Visitor_Rus.ttf/y2k.ttf/42759.ttf/a_Domino.TTF/a_FuturaRound Bold.ttf/ACME.TTF/ACME_0.ttf
    Video
    ID : 1
    Format : AVC
    Format/Info : Advanced Video Codec
    Format profile : High 10@L5
    Format settings : CABAC/12 Ref Frames
    Format settings, CABAC : Yes
    Format settings, Reference : 12 frames
    Codec ID : V_MPEG4/ISO/AVC
    Duration : 24 min 26 s
    Bit rate : 5 725 kb/s
    Width : 1 920 pixels
    Height : 1 080 pixels
    Display aspect ratio : 16: 9
    Frame rate mode : Constant
    Frame rate : 23.976 (24000/1001) FPS
    Color space : YUV
    Chroma subsampling : 4: 2: 0
    Bit depth : 10 bits
    Scan type : Progressive
    Bits/(Pixel*Frame) : 0.115
    Stream size : 1 001 MiB (78%)
    Writing library : x264 core 128 r2216 198a7ea
    Encoding settings : cabac=1/ref=12/deblock=1: -2: -2/analyse=0x3: 0x133/me=umh/subme=9/psy=1/psy_rd=1.00: 0.00/mixed_ref=1/me_range=32/chroma_me=1/trellis=2/8x8dct=1/cqm=0/deadzone=21, 11/fast_pskip=1/chroma_qp_offset=-2/threads=12/lookahead_threads=2/sliced_threads=0/nr=0/decimate=0/interlaced=0/bluray_compat=0/constrained_intra=0/bframes=12/b_pyramid=2/b_adapt=2/b_bias=0/direct=3/weightb=1/open_gop=0/weightp=2/keyint=250/keyint_min=23/scenecut=40/intra_refresh=0/rc=crf/mbtree=0/crf=16.0/qcomp=0.70/qpmin=0/qpmax=81/qpstep=4/ip_ratio=1.40/pb_ratio=1.30/aq=1: 1.00
    Language : Japanese
    Default : Yes
    Forced : No
    Audio #1
    ID : 2
    Format : AC-3
    Format/Info : Audio Coding 3
    Commercial name : Dolby Digital
    Codec ID : A_AC3
    Duration : 24 min 26 s
    Bit rate mode : Constant
    Bit rate : 192 kb/s
    Channel(s) : 2 channels
    Channel layout : L R
    Sampling rate : 48.0 kHz
    Frame rate : 31.250 FPS (1536 SPF)
    Compression mode : Lossy
    Stream size : 33.6 MiB (3%)
    Title : Shiza Project (ShadMG Лизавета)
    Language : Russian
    Service kind : Complete Main
    Default : Yes
    Forced : No
    Audio #2
    ID : 3
    Format : AC-3
    Format/Info : Audio Coding 3
    Commercial name : Dolby Digital
    Codec ID : A_AC3
    Duration : 24 min 26 s
    Bit rate mode : Constant
    Bit rate : 192 kb/s
    Channel(s) : 2 channels
    Channel layout : L R
    Sampling rate : 48.0 kHz
    Frame rate : 31.250 FPS (1536 SPF)
    Compression mode : Lossy
    Stream size : 33.6 MiB (3%)
    Title : AniFilm (DemonOFmooN MezIdA)
    Language : Russian
    Service kind : Complete Main
    Default : No
    Forced : No
    Audio #3
    ID : 4
    Format : AC-3
    Format/Info : Audio Coding 3
    Commercial name : Dolby Digital
    Codec ID : A_AC3
    Duration : 24 min 26 s
    Bit rate mode : Constant
    Bit rate : 192 kb/s
    Channel(s) : 2 channels
    Channel layout : L R
    Sampling rate : 48.0 kHz
    Frame rate : 31.250 FPS (1536 SPF)
    Compression mode : Lossy
    Stream size : 33.6 MiB (3%)
    Title : AniDub (JAM)
    Language : Russian
    Service kind : Complete Main
    Default : No
    Forced : No
    Audio #4
    ID : 5
    Format : AC-3
    Format/Info : Audio Coding 3
    Commercial name : Dolby Digital
    Codec ID : A_AC3
    Duration : 24 min 26 s
    Bit rate mode : Constant
    Bit rate : 192 kb/s
    Channel(s) : 2 channels
    Channel layout : L R
    Sampling rate : 48.0 kHz
    Frame rate : 31.250 FPS (1536 SPF)
    Compression mode : Lossy
    Stream size : 33.6 MiB (3%)
    Title : GetSmart (Persona99)
    Language : Russian
    Service kind : Complete Main
    Default : No
    Forced : No
    Audio #5
    ID : 6
    Format : FLAC
    Format/Info : Free Lossless Audio Codec
    Codec ID : A_FLAC
    Duration : 24 min 26 s
    Bit rate mode : Variable
    Bit rate : 774 kb/s
    Channel(s) : 2 channels
    Channel layout : L R
    Sampling rate : 48.0 kHz
    Frame rate : 11.719 FPS (4096 SPF)
    Bit depth : 16 bits
    Compression mode : Lossless
    Stream size : 135 MiB (11%)
    Title : Original
    Writing library : libFLAC 1.2.1 (UTC 2007-09-17)
    Language : Japanese
    Default : No
    Forced : No
    Text #1
    ID : 7
    Format : ASS
    Codec ID : S_TEXT/ASS
    Codec ID/Info : Advanced Sub Station Alpha
    Duration : 23 min 50 s
    Bit rate : 107 b/s
    Count of elements : 244
    Compression mode : Lossless
    Stream size : 18.7 KiB (0%)
    Title : Forced (YakuSub Studio)
    Language : Russian
    Default : Yes
    Forced : No
    Text #2
    ID : 8
    Format : ASS
    Codec ID : S_TEXT/ASS
    Codec ID/Info : Advanced Sub Station Alpha
    Duration : 24 min 10 s
    Bit rate : 292 b/s
    Count of elements : 683
    Compression mode : Lossless
    Stream size : 51.7 KiB (0%)
    Title : Full (YakuSub Studio)
    Language : Russian
    Default : No
    Forced : No
    Menu
    00: 00: 00.000 : : Prologue
    00: 03: 27.999 : : OP
    00: 04: 58.047 : : Part A
    00: 12: 51.061 : : Part B
    00: 22: 40.067 : : ED
    00: 24: 10.115 : : Preview
    pre

    General
    Unique ID : 270883440378209087547045168356944676135 (0xCBCA40BFC7368B2F92AB4169F2D28527)
    Complete name : J: АнимеПолзучий Хаос! Няруко-Сан (Haiyore! Nyaruko-San) BDRip (2012-2015)Haiyore! Nyaruko-San W26 (OVA-2). Goodbye to W. The Chaos of Love in this Hot Spring (Прощай W. Здравствуйте Страстные Горячие Источники).mkv
    Format : Matroska
    Format version : Version 4
    File size : 1.19 GiB
    Duration : 15 min 24 s
    Overall bit rate mode : Variable
    Overall bit rate : 11.1 Mb/s
    Encoded date : UTC 2020-02-20 07: 20: 35
    Writing application : mkvmerge v43.0.0 (\'The Quartermaster\') 64-bit
    Writing library : libebml v1.3.10 + libmatroska v1.5.2
    Video
    ID : 1
    Format : AVC
    Format/Info : Advanced Video Codec
    Format profile : High@L4.1
    Format settings : CABAC/4 Ref Frames
    Format settings, CABAC : Yes
    Format settings, Reference : 4 frames
    Codec ID : V_MPEG4/ISO/AVC
    Duration : 15 min 24 s
    Bit rate : 9 410 kb/s
    Width : 1 920 pixels
    Height : 1 080 pixels
    Display aspect ratio : 16: 9
    Frame rate mode : Constant
    Frame rate : 23.976 (24000/1001) FPS
    Color space : YUV
    Chroma subsampling : 4: 2: 0
    Bit depth : 8 bits
    Scan type : Progressive
    Bits/(Pixel*Frame) : 0.189
    Stream size : 1.01 GiB (85%)
    Writing library : x264 core 146 r2538 121396c
    Encoding settings : cabac=1/ref=4/deblock=1: 0: 0/analyse=0x3: 0x133/me=umh/subme=9/psy=1/psy_rd=0.80: 0.00/mixed_ref=1/me_range=32/chroma_me=1/trellis=2/8x8dct=1/cqm=0/deadzone=21, 11/fast_pskip=1/chroma_qp_offset=-4/threads=4/lookahead_threads=1/sliced_threads=0/nr=0/decimate=0/interlaced=0/bluray_compat=0/constrained_intra=0/bframes=5/b_pyramid=2/b_adapt=2/b_bias=0/direct=1/weightb=1/open_gop=0/weightp=2/keyint=240/keyint_min=23/scenecut=40/intra_refresh=0/rc_lookahead=50/rc=crf/mbtree=1/crf=15.0/qcomp=0.70/qpmin=10/qpmax=42/qpstep=4/vbv_maxrate=50000/vbv_bufsize=50000/crf_max=0.0/nal_hrd=none/filler=0/ip_ratio=1.40/aq=1: 0.90
    Language : Japanese
    Default : Yes
    Forced : No
    Audio #1
    ID : 2
    Format : AAC Main
    Format/Info : Advanced Audio Codec
    Codec ID : A_AAC-1
    Duration : 15 min 24 s
    Bit rate : 192 kb/s
    Channel(s) : 2 channels
    Channel layout : L R
    Sampling rate : 48.0 kHz
    Frame rate : 46.875 FPS (1024 SPF)
    Compression mode : Lossy
    Stream size : 21.0 MiB (2%)
    Title : Shiza Project
    Language : Russian
    Default : Yes
    Forced : No
    Audio #2
    ID : 3
    Format : FLAC
    Format/Info : Free Lossless Audio Codec
    Codec ID : A_FLAC
    Duration : 15 min 24 s
    Bit rate mode : Variable
    Bit rate : 1 463 kb/s
    Channel(s) : 2 channels
    Channel layout : L R
    Sampling rate : 48.0 kHz
    Frame rate : 11.719 FPS (4096 SPF)
    Bit depth : 24 bits
    Compression mode : Lossless
    Stream size : 161 MiB (13%)
    Title : Original
    Writing library : libFLAC 1.3.1 (UTC 2014-11-25)
    Language : Japanese
    Default : No
    Forced : No
    Text #1
    ID : 4
    Format : ASS
    Codec ID : S_TEXT/ASS
    Codec ID/Info : Advanced Sub Station Alpha
    Duration : 15 min 16 s
    Bit rate : 2 027 b/s
    Count of elements : 1521
    Compression mode : Lossless
    Stream size : 227 KiB (0%)
    Title : Forced (YakuSub Studio)
    Language : Russian
    Default : Yes
    Forced : No
    Text #2
    ID : 5
    Format : ASS
    Codec ID : S_TEXT/ASS
    Codec ID/Info : Advanced Sub Station Alpha
    Duration : 15 min 16 s
    Bit rate : 2 139 b/s
    Count of elements : 1695
    Compression mode : Lossless
    Stream size : 239 KiB (0%)
    Title : Full (YakuSub Studio)
    Language : Russian
    Default : No
    Forced : No
    pre

    General
    Unique ID : 218120370407339397310697465802574271430 (0xA418748D8BFC4B1246EADB3C39A413C6)
    Complete name : J: АнимеПолзучий Хаос! Няруко-Сан (Haiyore! Nyaruko-San) BDRip (2012-2015)Haiyore! Nyaruko-San W27 (OVA-3). Haiyore! Nyaruko-san F OVA (Финал).mkv
    Format : Matroska
    Format version : Version 4
    File size : 2.19 GiB
    Duration : 27 min 57 s
    Overall bit rate mode : Variable
    Overall bit rate : 11.2 Mb/s
    Encoded date : UTC 2020-02-20 07: 18: 32
    Writing application : mkvmerge v43.0.0 (\'The Quartermaster\') 64-bit
    Writing library : libebml v1.3.10 + libmatroska v1.5.2
    Video
    ID : 1
    Format : AVC
    Format/Info : Advanced Video Codec
    Format profile : High@L4.1
    Format settings : CABAC/4 Ref Frames
    Format settings, CABAC : Yes
    Format settings, Reference : 4 frames
    Codec ID : V_MPEG4/ISO/AVC
    Duration : 27 min 57 s
    Bit rate : 9 551 kb/s
    Width : 1 920 pixels
    Height : 1 080 pixels
    Display aspect ratio : 16: 9
    Frame rate mode : Constant
    Frame rate : 23.976 (24000/1001) FPS
    Color space : YUV
    Chroma subsampling : 4: 2: 0
    Bit depth : 8 bits
    Scan type : Progressive
    Bits/(Pixel*Frame) : 0.192
    Stream size : 1.87 GiB (85%)
    Writing library : x264 core 146 r2538 121396c
    Encoding settings : cabac=1/ref=4/deblock=1: 0: 0/analyse=0x3: 0x133/me=umh/subme=9/psy=1/psy_rd=0.80: 0.00/mixed_ref=1/me_range=32/chroma_me=1/trellis=2/8x8dct=1/cqm=0/deadzone=21, 11/fast_pskip=1/chroma_qp_offset=-4/threads=4/lookahead_threads=1/sliced_threads=0/nr=0/decimate=0/interlaced=0/bluray_compat=0/constrained_intra=0/bframes=5/b_pyramid=2/b_adapt=2/b_bias=0/direct=1/weightb=1/open_gop=0/weightp=2/keyint=240/keyint_min=23/scenecut=40/intra_refresh=0/rc_lookahead=50/rc=crf/mbtree=1/crf=15.0/qcomp=0.70/qpmin=10/qpmax=42/qpstep=4/vbv_maxrate=50000/vbv_bufsize=50000/crf_max=0.0/nal_hrd=none/filler=0/ip_ratio=1.40/aq=1: 0.90
    Language : Japanese
    Default : Yes
    Forced : No
    Audio #1
    ID : 2
    Format : AC-3
    Format/Info : Audio Coding 3
    Commercial name : Dolby Digital
    Codec ID : A_AC3
    Duration : 27 min 57 s
    Bit rate mode : Constant
    Bit rate : 192 kb/s
    Channel(s) : 2 channels
    Channel layout : L R
    Sampling rate : 48.0 kHz
    Frame rate : 31.250 FPS (1536 SPF)
    Compression mode : Lossy
    Stream size : 38.4 MiB (2%)
    Title : Shiza Project
    Language : Russian
    Service kind : Complete Main
    Default : Yes
    Forced : No
    Audio #2
    ID : 3
    Format : FLAC
    Format/Info : Free Lossless Audio Codec
    Codec ID : A_FLAC
    Duration : 27 min 57 s
    Bit rate mode : Variable
    Bit rate : 1 471 kb/s
    Channel(s) : 2 channels
    Channel layout : L R
    Sampling rate : 48.0 kHz
    Frame rate : 11.719 FPS (4096 SPF)
    Bit depth : 24 bits
    Compression mode : Lossless
    Stream size : 294 MiB (13%)
    Title : Original
    Writing library : libFLAC 1.3.1 (UTC 2014-11-25)
    Language : Japanese
    Default : No
    Forced : No
    Text #1
    ID : 4
    Format : ASS
    Codec ID : S_TEXT/ASS
    Codec ID/Info : Advanced Sub Station Alpha
    Duration : 13 min 16 s
    Bit rate : 7 b/s
    Count of elements : 11
    Compression mode : Lossless
    Stream size : 775 Bytes (0%)
    Title : Forced (YakuSub Studio)
    Language : Russian
    Default : Yes
    Forced : No
    Text #2
    ID : 5
    Format : ASS
    Codec ID : S_TEXT/ASS
    Codec ID/Info : Advanced Sub Station Alpha
    Duration : 25 min 33 s
    Bit rate : 146 b/s
    Count of elements : 347
    Compression mode : Lossless
    Stream size : 27.4 KiB (0%)
    Title : Full (YakuSub Studio)
    Language : Russian
    Default : No
    Forced : No

    Время раздачи: С 8: 00 по 18: 00 МСК (до появления первых 3-5 скачавших)
    Понравился релиз? Ставь Оценку и нажми Спасибо
    Это серьёзно меня мотивирует делать подобные релизы.
    Если всем сердцем любишь аниме - подключайся и оставайся на раздаче максимально долго!
    За ретайминг звука и субтитров огромное спасибо DS2902
    Полный список ретаймов


    Онлайн видео Haiyore! Nyaruko-san W


    Haiyore! Nyaruko-san W | Ползучий Хаос! Няруко-Сан [ТВ-2] [2013, TV, 12 ep + 2 OVA] BDRip 1080p 10-bit raw+rus торрент скачать бесплатно
    Рейтинг →
     (голосов: 1, оценка 3/5, голосовать можно 1 раз )

    Другие торренты по теме:

  • Haiyore! Nyaruko-san F | Няруко-сан: Крадущийся хаос F [2015, OVA, 1 ep.] BDrip 720p raw скачать через торрент бесплатно
  • Haiyore! Nyaruko-san W | Няруко-сан: Крадущийся хаос [TV-2] [2013, TV, 12 эп. + 2 OVA] BDrip 1080p raw скачать через торрент бесплатно
  • Haiyore! Nyaruko-san F | Няруко-сан: Крадущийся хаос F [2015, OVA, 1 ep.] BDrip 1080p raw скачать через торрент бесплатно
  • Haiyore! Nyaruko-san F | Ползучий Хаос! Няруко-Сан [ТВ-1] [2012, TV, 12 ep + 1 OVA] BDRip 1080p 10-bit raw+rus


    • Комментарии (0):

      Информация

      Информация

        Посетители, находящиеся в группе Гости, не могут оставлять комментарии в данной новости.

        ↓ Меню




        Популярное

        Роботы-пожарные / Fire Robo (2016) WEB-DLRip [H.264 / 720p-LQ] (сезон 1, серии 1-26 из 26) [Обновляемая]

        (скачиваний: 6)
        Лея Уотерс | Переключение на силу. Как научиться видеть в детях сильные стороны, чтобы помочь им расцвести (2019) [EPUB]

        (скачиваний: 5)
        Сергей Матвеев | Полный курс английского языка для лентяев (2016) [PDF]

        (скачиваний: 5)
        Жила-была царевна (2015-2019) WEB-DLRip [H.264 / 720p-LQ] (сезон 1, серии 1-18 из 26) [Обновляемая]

        (скачиваний: 4)
        Металионы / Metalions (2018-2019) WEB-DLRip [H.264 / 720p-LQ] (сезон 1, серии 1-52 из 52) [Обновляемая]

        (скачиваний: 4)
        Алексей Марков | Хулиганская экономика. Финансовые рынки для хулиганов и их родителей (2019) [EPUB]

        (скачиваний: 4)
        Серия книг | Образовательная манга (2010 - 2015) [PDF]

        (скачиваний: 4)
        Александр Нилл | Воспитание свободой. Школа Саммерхилл (2020) [EPUB]

        (скачиваний: 4)
        Мариэтта Чудакова | Рассказы про Россию. 1861—1922 (2020) [EPUB]

        (скачиваний: 3)
        Алена Зюрикова | Дзен в декрете, или Как не сойти с ума от счастья. Режим, сон, воспитание и хорошее настроение (2020) [EPUB]

        (скачиваний: 3)