ВАЖНО! Сайт скоро заблокируют! Подписывайся на наш канал в Telegram https://t.me/torrentok и получи доступ к торрентам без ограничений!
.
Авторизация | Регистрация
bitok.xyz
Торрент скачать бесплатно Мультфильмы торрент скачать Шесть рук / Seis Manos (2019) WEBRip [H.264 / 1080p-LQ] (сезон 1, серии 1-8 из 8) NewStation торрент скачать бесплатно


    Шесть рук / Seis Manos (2019) WEBRip [H.264 / 1080p-LQ] (сезон 1, серии 1-8 из 8) NewStation торрент скачать бесплатно

    Дата: 23-02-2020, 05:00 | .torrent скачали: 0

    Шесть рук / Seis Manos (2019) WEBRip [H.264 / 1080p-LQ] (сезон 1, серии 1-8 из 8) NewStationПроизводство: США, Powerhouse Animation Studios, Viz Media
    Жанр: Фэнтези, боевик, драма, криминал, приключения
    Режиссер: Уиллис Буллинер

    Описание

    Сюжет разворачивается в вымышленном городе Сан-Симон в 1970-х годах в Мексике и вращается вокруг трёх сирот, обученных китайским боевым искусствам. Когда их наставника убивают, они объединяют усилия с американским агентом УБН и мексиканской полицейской, чтобы отомстить за его смерть.

    Релиз от: NewStation
    Продолжительность: ~00: 27: 00 серия
    Качество видео: WEBRip
    Перевод: Многоголосый профессиональный (NewStation)присутствует ненормативная лексика
    Субтитры: русские (FilmStore Group), английские, испанские, французские, китайские
    Видео: AVC/H.264, 1920x1080, ~6190 Kbps
    Аудио #1: EAC-3, 6 ch, 640 kbps, - Русский (NewStation)
    Аудио #2: EAC-3, 6 ch, 640 kbps, - Английский01 Toppled
    02 Grief
    03 Night of the Wolves
    04 Caged Dogs
    05 Blindfold
    06 Reunion
    07 Between This World and the Next
    08 The Empty Place
    Общее
    Уникальный идентификатор : 12777518238275154811998534021787867161 (0x99CDC49A9ABECF30E105F8D59DAD819)
    Полное имя : F: NewStationSeis.Manos.S01.WEBRip.1080p.NewStationSeis.Manos.S01E01.WEBRip.1080p.NewStation.mkv
    Формат : Matroska
    Версия формата : Version 4/Version 2
    Размер файла : 1, 41 Гбайт
    Продолжительность : 27 м. 16 с.
    Режим общего битрейта : Переменный
    Общий поток : 7405 Кбит/сек
    Дата кодирования : UTC 2020-02-03 17: 01: 46
    Программа кодирования : mkvmerge v28.1.0 (\'Morning Child\') 64-bit
    Библиотека кодирования : libebml v1.3.6 + libmatroska v1.4.9
    Attachments : verdana.ttf/arial.ttf/arial_0.ttf/d_BBBarBrawl.otf
    Видео
    Идентификатор : 1
    Формат : AVC
    Формат/Информация : Advanced Video Codec
    Профиль формата : Main@L4
    Настройки формата : CABAC/3 Ref Frames
    Параметр CABAC формата : Да
    Параметр RefFrames формата : 3 кадра
    Идентификатор кодека : V_MPEG4/ISO/AVC
    Продолжительность : 27 м. 15 с.
    Вид битрейта : Переменный
    Битрейт : 6190 Кбит/сек
    Максимальный битрейт : 9285 Кбит/сек
    Ширина : 1920 пикселей
    Высота : 1080 пикселей
    Соотношение сторон : 16: 9
    Режим частоты кадров : Постоянный
    Частота кадров : 23, 976 (24000/1001) кадра/сек
    Цветовое пространство : YUV
    Субдискретизация насыщенности : 4: 2: 0
    Битовая глубина : 8 бит
    Тип развёртки : Прогрессивная
    Бит/(Пиксели*Кадры) : 0.125
    Размер потока : 1, 16 Гбайт (83%)
    Библиотека кодирования : x264 core 148 r2715 7e75228
    Настройки программы : cabac=1/ref=3/deblock=1: 0: 0/analyse=0x1: 0x111/me=umh/subme=10/psy=1/psy_rd=1.00: 0.00/mixed_ref=1/me_range=24/chroma_me=1/trellis=2/8x8dct=0/cqm=0/deadzone=21, 11/fast_pskip=1/chroma_qp_offset=-2/threads=8/lookahead_threads=1/sliced_threads=0/nr=0/decimate=1/interlaced=0/bluray_compat=0/stitchable=1/constrained_intra=0/bframes=2/b_pyramid=0/b_adapt=2/b_bias=0/direct=3/weightb=1/open_gop=0/weightp=2/keyint=48/keyint_min=25/scenecut=0/intra_refresh=0/rc_lookahead=48/rc=2pass/mbtree=1/bitrate=6190/ratetol=1.0/qcomp=0.50/qpmin=6/qpmax=51/qpstep=4/cplxblur=20.0/qblur=0.5/vbv_maxrate=9285/vbv_bufsize=12380/nal_hrd=vbr/filler=0/ip_ratio=1.40/aq=1: 1.00
    Язык : English
    Default : Да
    Forced : Нет
    Аудио #1
    Идентификатор : 2
    Формат : E-AC-3
    Формат/Информация : Enhanced Audio Coding 3
    Идентификатор кодека : A_EAC3
    Продолжительность : 27 м. 16 с.
    Вид битрейта : Постоянный
    Битрейт : 640 Кбит/сек
    Каналы : 6 каналов
    Расположение каналов : Front: L C R, Side: L R, LFE
    Частота : 48, 0 КГц
    Частота кадров : 187, 500 кадров/сек (256 SPF)
    Метод сжатия : С потерями
    Размер потока : 125 Мбайт (9%)
    Заголовок : NewStation
    Язык : Russian
    ServiceKind/String : Complete Main
    Default : Да
    Forced : Нет
    Аудио #2
    Идентификатор : 3
    Формат : E-AC-3
    Формат/Информация : Enhanced Audio Coding 3
    Идентификатор кодека : A_EAC3
    Продолжительность : 27 м. 16 с.
    Вид битрейта : Постоянный
    Битрейт : 640 Кбит/сек
    Каналы : 6 каналов
    Расположение каналов : Front: L C R, Side: L R, LFE
    Частота : 48, 0 КГц
    Частота кадров : 187, 500 кадров/сек (256 SPF)
    Метод сжатия : С потерями
    Размер потока : 125 Мбайт (9%)
    Заголовок : English
    Язык : English
    ServiceKind/String : Complete Main
    Default : Нет
    Forced : Нет
    Текст #1
    Идентификатор : 4
    Формат : ASS
    Идентификатор кодека : S_TEXT/ASS
    Идентификатор кодека/Информация : Advanced Sub Station Alpha
    Продолжительность : 25 м. 13 с.
    Битрейт : 93 бит/сек
    ElementCount : 245
    Метод сжатия : Без потерь
    Размер потока : 17, 4 Кбайт (0%)
    Заголовок : FilmStore Group
    Язык : Russian
    Default : Нет
    Forced : Нет
    Текст #2
    Идентификатор : 5
    Формат : UTF-8
    Идентификатор кодека : S_TEXT/UTF8
    Идентификатор кодека/Информация : UTF-8 Plain Text
    Продолжительность : 25 м. 40 с.
    Битрейт : 38 бит/сек
    ElementCount : 344
    Размер потока : 7, 28 Кбайт (0%)
    Заголовок : English (SDH)
    Язык : English
    Default : Нет
    Forced : Нет
    Текст #3
    Идентификатор : 6
    Формат : UTF-8
    Идентификатор кодека : S_TEXT/UTF8
    Идентификатор кодека/Информация : UTF-8 Plain Text
    Продолжительность : 25 м. 47 с.
    Битрейт : 33 бит/сек
    ElementCount : 243
    Размер потока : 6, 30 Кбайт (0%)
    Заголовок : Chinese (Simplified)
    Язык : Chinese
    Default : Нет
    Forced : Нет
    Текст #4
    Идентификатор : 7
    Формат : UTF-8
    Идентификатор кодека : S_TEXT/UTF8
    Идентификатор кодека/Информация : UTF-8 Plain Text
    Продолжительность : 25 м. 47 с.
    Битрейт : 33 бит/сек
    ElementCount : 243
    Размер потока : 6, 32 Кбайт (0%)
    Заголовок : Chinese (Traditional)
    Язык : Chinese
    Default : Нет
    Forced : Нет
    Текст #5
    Идентификатор : 8
    Формат : UTF-8
    Идентификатор кодека : S_TEXT/UTF8
    Идентификатор кодека/Информация : UTF-8 Plain Text
    Продолжительность : 25 м. 47 с.
    Битрейт : 32 бит/сек
    ElementCount : 242
    Размер потока : 6, 05 Кбайт (0%)
    Заголовок : French
    Язык : French
    Default : Нет
    Forced : Нет
    Текст #6
    Идентификатор : 9
    Формат : UTF-8
    Идентификатор кодека : S_TEXT/UTF8
    Идентификатор кодека/Информация : UTF-8 Plain Text
    Продолжительность : 25 м. 47 с.
    Битрейт : 29 бит/сек
    ElementCount : 233
    Размер потока : 5, 58 Кбайт (0%)
    Заголовок : Spanish
    Язык : Spanish
    Default : Нет
    Forced : Нет

    Скриншоты для ознакомления



    Все одноименные релизы в Клубе
    Время раздачи: 24/7 (круглосуточно) (до появления первых 3-5 скачавших)

    Онлайн видео Шесть рук


    Шесть рук / Seis Manos (2019) WEBRip [H.264 / 1080p-LQ] (сезон 1, серии 1-8 из 8) NewStation торрент скачать бесплатно
    Рейтинг →
     (голосов: 1, оценка 3/5, голосовать можно 1 раз )

    Другие торренты по теме:

  • Шесть рук / Seis Manos (2019) WEBRip [H.264 / 720p-LQ] (сезон 1, серии 1-8 из 8) NewStation
  • Шесть рук / Seis Manos (2019) WEBRip (сезон 1, серии 1-8 из 8) NewStation


    • Комментарии (0):

      Информация

      Информация

        Посетители, находящиеся в группе Гости, не могут оставлять комментарии в данной новости.

        ↓ Меню




        Популярное

        Роботы-пожарные / Fire Robo (2016) WEB-DLRip [H.264 / 720p-LQ] (сезон 1, серии 1-26 из 26) [Обновляемая]

        (скачиваний: 5)
        Сергей Матвеев | Полный курс английского языка для лентяев (2016) [PDF]

        (скачиваний: 4)
        Жила-была царевна (2015-2019) WEB-DLRip [H.264 / 720p-LQ] (сезон 1, серии 1-18 из 26) [Обновляемая]

        (скачиваний: 3)
        Gekijouban KanColle | Kantai Collection Movie | Fleet Girls Collection: Movie Sequence| Коллекционная флотилия на большом экране [2016, Movie] BDrip 720p 10bit raw

        (скачиваний: 3)
        Роберт Кийосаки | Богатый папа, бедный папа для подростков (2014) [PDF, FB2]

        (скачиваний: 3)
        Серия книг | Образовательная манга (2010 - 2015) [PDF]

        (скачиваний: 3)
        Анна Зайцева, Анастасия Дубасова | Чудесный пластилин: лепим вместе с детьми (2011) [PDF]

        (скачиваний: 2)
        Королевская академия / Regal Academy (2016) SATRip [H.264] (Сезон 1, 26 серий из 26) [UKR]

        (скачиваний: 2)
        Свинка Пеппа / Peppa Pig (2004-2012) SATRip (1-4 сезоны: 208 серий из 209) скачать через торрент бесплатно

        (скачиваний: 2)
        Металионы / Metalions (2018-2019) WEB-DLRip [H.264 / 720p-LQ] (сезон 1, серии 1-52 из 52) [Обновляемая]

        (скачиваний: 2)