Подписывайся на наш канал в Telegram https://t.me/torrentok и получи доступ к торрентам без ограничений!
.
Авторизация | Регистрация
bitok.xyz
Торрент скачать бесплатно Мультфильмы торрент скачать Шесть рук / Seis Manos (2019) WEBRip (сезон 1, серии 1-8 из 8) NewStation торрент скачать бесплатно


    Шесть рук / Seis Manos (2019) WEBRip (сезон 1, серии 1-8 из 8) NewStation торрент скачать бесплатно

    Дата: 23-02-2020, 05:00 | .torrent скачали: 0

    Шесть рук / Seis Manos (2019) WEBRip (сезон 1, серии 1-8 из 8) NewStationПроизводство: США, Powerhouse Animation Studios, Viz Media
    Жанр: Фэнтези, боевик, драма, криминал, приключения
    Режиссер: Уиллис Буллинер

    Описание

    Сюжет разворачивается в вымышленном городе Сан-Симон в 1970-х годах в Мексике и вращается вокруг трёх сирот, обученных китайским боевым искусствам. Когда их наставника убивают, они объединяют усилия с американским агентом УБН и мексиканской полицейской, чтобы отомстить за его смерть.

    Релиз от: NewStation
    Продолжительность: ~00: 27: 00 серия
    Качество видео: WEBRip
    Перевод: Многоголосый профессиональный (NewStation)присутствует ненормативная лексика
    Субтитры: отсутствуют
    Видео: Xvid, 700x400, ~1090 kbps
    Аудио #1: MP3, 2 ch, 128 Kbps, - Русский (NewStation)
    Аудио #2: MP3, 2 ch, 128 Kbps, - Английский01 Toppled
    02 Grief
    03 Night of the Wolves
    04 Caged Dogs
    05 Blindfold
    06 Reunion
    07 Between This World and the Next
    08 The Empty Place
    Общее
    Полное имя : F: NewStationSeis.Manos.S01.WEBRip.NewStationSeis.Manos.S01E01.WEBRip.NewStation.avi
    Формат : AVI
    Формат/Информация : Audio Video Interleave
    Размер файла : 265 Мбайт
    Продолжительность : 27 м. 15 с.
    Общий поток : 1360 Кбит/сек
    Программа кодирования : VirtualDubMod 1.5.10.2 (build 2540/release)
    Библиотека кодирования : VirtualDubMod build 2540/release
    Видео
    Идентификатор : 0
    Формат : MPEG-4 Visual
    Профиль формата : Simple@L5
    Параметр BVOP формата : Нет
    Параметр QPel формата : Нет
    Параметр GMC формата : Без точки перехода
    Параметр матрицы формата : Default (H.263)
    Идентификатор кодека : XVID
    Идентификатор кодека/Подсказка : XviD
    Продолжительность : 27 м. 15 с.
    Битрейт : 1090 Кбит/сек
    Ширина : 720 пикселей
    Высота : 400 пикселей
    Соотношение сторон : 16: 9
    Частота кадров : 23, 976 (24000/1001) кадра/сек
    Цветовое пространство : YUV
    Субдискретизация насыщенности : 4: 2: 0
    Битовая глубина : 8 бит
    Тип развёртки : Прогрессивная
    Метод сжатия : С потерями
    Бит/(Пиксели*Кадры) : 0.158
    Размер потока : 212 Мбайт (80%)
    Библиотека кодирования : XviD 67
    Аудио #1
    Идентификатор : 1
    Формат : MPEG Audio
    Версия формата : Version 1
    Профиль формата : Layer 3
    Настройки формата : Joint stereo/MS Stereo
    Идентификатор кодека : 55
    Идентификатор кодека/Подсказка : MP3
    Продолжительность : 27 м. 15 с.
    Вид битрейта : Постоянный
    Битрейт : 128 Кбит/сек
    Каналы : 2 канала
    Частота : 48, 0 КГц
    Метод сжатия : С потерями
    Размер потока : 25, 0 Мбайт (9%)
    Выравнивание : Соединение по промежуткам
    Продолжительность промежутка : 42 мс. (1, 00 видеокадр)
    Время предзагрузки промежутка : 504 мс.
    Аудио #2
    Идентификатор : 2
    Формат : MPEG Audio
    Версия формата : Version 1
    Профиль формата : Layer 3
    Идентификатор кодека : 55
    Идентификатор кодека/Подсказка : MP3
    Продолжительность : 27 м. 15 с.
    Вид битрейта : Постоянный
    Битрейт : 128 Кбит/сек
    Каналы : 2 канала
    Частота : 48, 0 КГц
    Метод сжатия : С потерями
    Размер потока : 25, 0 Мбайт (9%)
    Выравнивание : Разделение по промежуткам
    Продолжительность промежутка : 42 мс. (1, 00 видеокадр)
    Время предзагрузки промежутка : 500 мс.
    Библиотека кодирования : LAMELAME_MAJOR_VERSI

    Скриншоты для ознакомления



    Все одноименные релизы в Клубе
    Время раздачи: 24/7 (круглосуточно) (до появления первых 3-5 скачавших)

    Шесть рук / Seis Manos (2019) WEBRip (сезон 1, серии 1-8 из 8) NewStation торрент скачать бесплатно
    Рейтинг →
     (голосов: 1, оценка 4/5, голосовать можно 1 раз )

    Другие торренты по теме:

  • Шесть рук / Seis Manos (2019) WEBRip [H.264 / 1080p-LQ] (сезон 1, серии 1-8 из 8) NewStation
  • Шесть рук / Seis Manos (2019) WEBRip [H.264 / 720p-LQ] (сезон 1, серии 1-8 из 8) NewStation


    • Комментарии (0):

      Информация

      Информация

        Посетители, находящиеся в группе Гости, не могут оставлять комментарии в данной новости.

        ↓ Меню




        Популярное