ВАЖНО! Сайт скоро заблокируют! Подписывайся на наш канал в Telegram https://t.me/torrentok и получи доступ к торрентам без ограничений!
.
Авторизация | Регистрация
bitok.xyz
Торрент скачать бесплатно Мультфильмы торрент скачать Ледяная принцесса / Tabaluga (2018) BDRip [H.264 / 1080p] [PR] торрент скачать бесплатно


    Ледяная принцесса / Tabaluga (2018) BDRip [H.264 / 1080p] [PR] торрент скачать бесплатно

    Дата: 23-02-2020, 05:00 | .torrent скачали: 0

    Ледяная принцесса / Tabaluga (2018) BDRip [H.264 / 1080p] [PR]Производство: Германия, Канада, Awesometown Entertainment, Deutsche Columbia Pictures Film Produktion
    Жанр: Музыкальный, Приключения, Комедия
    Режиссер: Свен Унтервальдт мл.

    Описание

    Там, где круглый год лежат снега, а небо озаряет северное сияние, живет Ледяная принцесса Лилли с голубыми, как древний лед, волосами. Однажды Лилли и её друг, полярный медведь Лимбо, встречают юного дракона, который не умеет извергать пламя. Лилли обещает помочь ему. Но путь, который их ждет, будет не из легких, впереди новых друзей ждет немало приключений и опасных испытаний.

    Возраст: 6+ (зрителям, достигшим 6 лет)
    Рейтинг MPAA: PG (рекомендуется присутствие родителей)
    Дата мировой премьеры: 25 ноября 2018
    Дата российской премьеры: 25 января 2020, Наше Кино 3D
    Релиз от: ELEKTRI4KA
    Продолжительность: 01: 26: 36
    Качество видео: BDRip
    Перевод: Дублированный (iTunes)
    Субтитры: Немецкие
    Видео: AVC/H.264, 1920x1040, 7325 Kbps
    Аудио 1: AC3, 6 ch, 384 Kbps | Русский (DUB iTunes)
    Аудио 2: DTS, 6 ch, 1509 Kbps | Немецкий
    Общее
    General
    Complete name : Ledyanaya.printsessa.2018.1080p.BluRay.ELEKTRI4KA.UNIONGANG.mkv
    Format : Matroska
    Format version : Version 4
    File size : 5.58 GiB
    Duration : 1 h 26 min
    Overall bit rate mode : Variable
    Overall bit rate : 9 226 kb/s
    Movie name : ELEKTRI4KA.UNIONGANG
    Encoded date : UTC 2020-02-21 12: 33: 42
    Writing application : mkvmerge v8.3.0 (\'Over the Horizon\') 64bit
    Writing library : libebml v1.3.1 + libmatroska v1.4.2
    Video
    ID : 1
    Format : AVC
    Format/Info : Advanced Video Codec
    Format profile : High@L4.1
    Format settings : CABAC/3 Ref Frames
    Format settings, CABAC : Yes
    Format settings, Reference frames : 3 frames
    Codec ID : V_MPEG4/ISO/AVC
    Duration : 1 h 26 min
    Bit rate mode : Variable
    Bit rate : 7 325 kb/s
    Maximum bit rate : 15.0 Mb/s
    Width : 1 920 pixels
    Height : 1 040 pixels
    Display aspect ratio : 1.85: 1
    Frame rate mode : Constant
    Frame rate : 25.000 FPS
    Color space : YUV
    Chroma subsampling : 4: 2: 0
    Bit depth : 8 bits
    Scan type : Progressive
    Bits/(Pixel*Frame) : 0.147
    Stream size : 4.43 GiB (79%)
    Writing library : x264 core 157 r2935 545de2f
    Encoding settings : cabac=1/ref=4/deblock=1: 0: 0/analyse=0x3: 0x133/me=umh/subme=9/psy=1/psy_rd=1.00: 0.00/mixed_ref=1/me_range=24/chroma_me=1/trellis=2/8x8dct=1/cqm=0/deadzone=21, 11/fast_pskip=1/chroma_qp_offset=-2/threads=32/lookahead_threads=2/sliced_threads=0/slices=4/nr=0/decimate=1/interlaced=0/bluray_compat=1/constrained_intra=0/bframes=3/b_pyramid=1/b_adapt=2/b_bias=0/direct=3/weightb=1/open_gop=1/weightp=1/keyint=24/keyint_min=1/scenecut=40/intra_refresh=0/rc_lookahead=25/rc=crf/mbtree=0/crf=16.5/qcomp=0.60/qpmin=0/qpmax=51/qpstep=4/vbv_maxrate=15000/vbv_bufsize=15000/crf_max=0.0/nal_hrd=vbr/filler=0/ip_ratio=1.40/pb_ratio=1.30/aq=0
    Language : German
    Default : Yes
    Forced : No
    Color range : Limited
    Color primaries : BT.709
    Transfer characteristics : BT.709
    Matrix coefficients : BT.709
    Audio #1
    ID : 2
    Format : AC-3
    Format/Info : Audio Coding 3
    Commercial name : Dolby Digital
    Codec ID : A_AC3
    Duration : 1 h 26 min
    Bit rate mode : Constant
    Bit rate : 384 kb/s
    Channel(s) : 6 channels
    Channel layout : L R C LFE Ls Rs
    Sampling rate : 48.0 kHz
    Frame rate : 31.250 FPS (1536 SPF)
    Compression mode : Lossy
    Stream size : 238 MiB (4%)
    Title : iTunes
    Language : Russian
    Service kind : Complete Main
    Default : Yes
    Forced : No
    Audio #2
    ID : 3
    Format : DTS
    Format/Info : Digital Theater Systems
    Codec ID : A_DTS
    Duration : 1 h 26 min
    Bit rate mode : Constant
    Bit rate : 1 509 kb/s
    Channel(s) : 6 channels
    Channel layout : C L R Ls Rs LFE
    Sampling rate : 48.0 kHz
    Frame rate : 93.750 FPS (512 SPF)
    Bit depth : 24 bits
    Compression mode : Lossy
    Stream size : 935 MiB (16%)
    Language : German
    Default : No
    Forced : No
    Text
    ID : 4
    Format : VobSub
    Muxing mode : zlib
    Codec ID : S_VOBSUB
    Codec ID/Info : Picture based subtitle format used on DVDs
    Duration : 1 h 19 min
    Bit rate : 5 834 b/s
    Count of elements : 973
    Stream size : 3.32 MiB (0%)
    Title : German Full
    Language : German
    Default : No
    Forced : No
    Menu
    00: 00: 00.000 : de: 00: 00: 00.000
    00: 06: 09.080 : de: 00: 06: 09.080
    00: 10: 52.920 : de: 00: 10: 52.920
    00: 15: 00.400 : de: 00: 15: 00.400
    00: 23: 17.240 : de: 00: 23: 17.240
    00: 28: 00.440 : de: 00: 28: 00.440
    00: 31: 48.440 : de: 00: 31: 48.440
    00: 35: 14.920 : de: 00: 35: 14.920
    00: 42: 00.440 : de: 00: 42: 00.440
    00: 45: 25.400 : de: 00: 45: 25.400
    00: 49: 46.720 : de: 00: 49: 46.720
    00: 55: 14.400 : de: 00: 55: 14.400
    00: 59: 42.360 : de: 00: 59: 42.360
    01: 06: 09.280 : de: 01: 06: 09.280
    01: 15: 03.800 : de: 01: 15: 03.800
    01: 20: 49.280 : de: 01: 20: 49.280

    Скриншоты для ознакомления



    Все одноименные релизы в Клубе
    Время раздачи: 27/7 (до появления первых 3-5 скачавших)

    Онлайн видео Ледяная принцесса


    Ледяная принцесса / Tabaluga (2018) BDRip [H.264 / 1080p] [PR] торрент скачать бесплатно
    Рейтинг →
     (голосов: 1, оценка 4/5, голосовать можно 1 раз )

    Другие торренты по теме:

  • Сергей Садов | Ледяная принцесса [Книги 1-2] (2017) [MP3]
  • Ледяная принцесса / Tabaluga (2018) WEB-DL [H.264 / 1080p-LQ]
  • Ледяная принцесса / Tabaluga (2018) BDRip [H.264 / 720p] [PR]


    • Комментарии (0):

      Информация

      Информация

        Посетители, находящиеся в группе Гости, не могут оставлять комментарии в данной новости.

        ↓ Меню




        Популярное

        Роботы-пожарные / Fire Robo (2016) WEB-DLRip [H.264 / 720p-LQ] (сезон 1, серии 1-26 из 26) [Обновляемая]

        (скачиваний: 5)
        Сергей Матвеев | Полный курс английского языка для лентяев (2016) [PDF]

        (скачиваний: 4)
        Жила-была царевна (2015-2019) WEB-DLRip [H.264 / 720p-LQ] (сезон 1, серии 1-18 из 26) [Обновляемая]

        (скачиваний: 3)
        Gekijouban KanColle | Kantai Collection Movie | Fleet Girls Collection: Movie Sequence| Коллекционная флотилия на большом экране [2016, Movie] BDrip 720p 10bit raw

        (скачиваний: 3)
        Роберт Кийосаки | Богатый папа, бедный папа для подростков (2014) [PDF, FB2]

        (скачиваний: 3)
        Серия книг | Образовательная манга (2010 - 2015) [PDF]

        (скачиваний: 3)
        Анна Зайцева, Анастасия Дубасова | Чудесный пластилин: лепим вместе с детьми (2011) [PDF]

        (скачиваний: 2)
        Королевская академия / Regal Academy (2016) SATRip [H.264] (Сезон 1, 26 серий из 26) [UKR]

        (скачиваний: 2)
        Свинка Пеппа / Peppa Pig (2004-2012) SATRip (1-4 сезоны: 208 серий из 209) скачать через торрент бесплатно

        (скачиваний: 2)
        Металионы / Metalions (2018-2019) WEB-DLRip [H.264 / 720p-LQ] (сезон 1, серии 1-52 из 52) [Обновляемая]

        (скачиваний: 2)