Подписывайся на наш канал в Telegram https://t.me/torrentok и получи доступ к торрентам без ограничений!
.
Авторизация | Регистрация
bitok.xyz
Торрент скачать бесплатно Мультфильмы торрент скачать Стражи Арктики / Arctic Justice (2019) BDRip [H.265 / 720p] [10-bit] торрент скачать бесплатно


    Стражи Арктики / Arctic Justice (2019) BDRip [H.265 / 720p] [10-bit] торрент скачать бесплатно

    Дата: 23-02-2020, 05:00 | .torrent скачали: 0

    Стражи Арктики / Arctic Justice (2019) BDRip [H.265 / 720p] [10-bit]Производство: Индия, Великобритания, Китай, Канада, Япония, Корея Южная, США/AMBI Group, Arctic Justice Movie, Assemblage Entertainment
    Жанр: Мультфильм, комедия, приключения, семейный
    Режиссер: Аарон Вудли

    Описание

    Добро пожаловать на ЗвероПолюс, где власть находится в лапах больших, сильных и зубастых. Ради собственного превосходства они готовы переделать под себя весь мир. Лишь маленькие, но очень храбрые встанут на защиту не только родного Северного полюса, но и целой планеты. Именно они — настоящие Стражи Арктики.

    Возраст: 6+ (зрителям, достигшим 6 лет)
    Рейтинг MPAA: PG (рекомендуется присутствие родителей)
    Дата мировой премьеры: 1 ноября 2019
    Дата российской премьеры: 14 ноября 2019, Вольга
    Продолжительность: 01: 32: 53
    Качество видео: BDRip (720p)
    Перевод: Дублированный (iTunes)
    Язык озвучки Русский, английский
    Субтитры: Английские
    Видео: HEVC/H.265, 1280x536, 3524 Kbps
    Аудио 1: AC3, 6 ch, 384 Kbps | Русский
    Аудио 2: AC3, 6 ch, 448 Kbps | АнглийскийОбщее
    Уникальный идентификатор : 205824933138130231673754863090303153167 (0x9AD870B1288C879F5EB19C0E31D6B40F)
    Полное имя : Arctic Justice (2019) BDRip (1280x536) HEVC.mkv
    Формат : Matroska
    Версия формата : Version 4/Version 2
    Размер файла : 2, 88 Гбайт
    Продолжительность : 1 ч. 32 м.
    Общий поток : 4445 Кбит/сек
    Название фильма : Стражи Арктики/Arctic Justice (2019)
    Программа кодирования : XviD4PSP 8.0.98
    Библиотека кодирования : Lavf58.29.100
    Обложка : Yes
    ErrorDetectionType : Per level 1
    Attachments : cover
    ENCODING_INFO : JPEG COPY Быстрое
    Язык : und
    Видео
    Идентификатор : 1
    Формат : HEVC
    Формат/Информация : High Efficiency Video Coding
    Профиль формата : Main10@L4.1@High
    Идентификатор кодека : V_MPEGH/ISO/HEVC
    Продолжительность : 1 ч. 32 м.
    Битрейт : 3524 Кбит/сек
    Ширина : 1280 пикселей
    Высота : 536 пикселей
    Соотношение сторон : 2, 40: 1
    Режим частоты кадров : Постоянный
    Частота кадров : 23, 976 (24000/1001) кадра/сек
    Цветовое пространство : YUV
    Субдискретизация насыщенности : 4: 2: 0
    Битовая глубина : 10 бит
    Бит/(Пиксели*Кадры) : 0.214
    Размер потока : 2, 29 Гбайт (79%)
    Заголовок : Стражи Арктики/Arctic Justice (2019)
    Язык : English
    Default : Да
    Forced : Нет
    Цветовой диапазон : Full
    ENCODING_INFO : H264 HEVC NVENC CQ 14 HQ
    Аудио #1
    Идентификатор : 2
    Формат : AC-3
    Формат/Информация : Audio Coding 3
    Параметр Endianness формата : Big
    Идентификатор кодека : A_AC3
    Продолжительность : 1 ч. 32 м.
    Вид битрейта : Постоянный
    Битрейт : 384 Кбит/сек
    Каналы : 6 каналов
    Расположение каналов : Front: L C R, Side: L R, LFE
    Частота : 48, 0 КГц
    Частота кадров : 31, 250 кадров/сек (1536 SPF)
    Битовая глубина : 16 бит
    Метод сжатия : С потерями
    Размер потока : 255 Мбайт (9%)
    Заголовок : DUB | iTunes
    Язык : Russian
    ServiceKind/String : Complete Main
    Default : Да
    Forced : Нет
    ENCODING_INFO : AC3 COPY Безопасное
    Аудио #2
    Идентификатор : 3
    Формат : AC-3
    Формат/Информация : Audio Coding 3
    Параметр Endianness формата : Big
    Идентификатор кодека : A_AC3
    Продолжительность : 1 ч. 32 м.
    Вид битрейта : Постоянный
    Битрейт : 448 Кбит/сек
    Каналы : 6 каналов
    Расположение каналов : Front: L C R, Side: L R, LFE
    Частота : 48, 0 КГц
    Частота кадров : 31, 250 кадров/сек (1536 SPF)
    Битовая глубина : 16 бит
    Метод сжатия : С потерями
    Размер потока : 298 Мбайт (10%)
    Заголовок : Original
    Язык : English
    ServiceKind/String : Complete Main
    Default : Нет
    Forced : Нет
    ENCODING_INFO : AC3 AC3 CBR 448kbps
    Текст
    Идентификатор : 4
    Формат : UTF-8
    Идентификатор кодека : S_TEXT/UTF8
    Идентификатор кодека/Информация : UTF-8 Plain Text
    Заголовок : SDH
    Язык : English
    Default : Да
    Forced : Нет
    ENCODING_INFO : SUBRIP COPY Быстрое
    Меню
    00: 00: 00.000 : : Chapter 01
    00: 06: 18.628 : : Chapter 02
    00: 12: 54.524 : : Chapter 03
    00: 18: 57.553 : : Chapter 04
    00: 23: 55.267 : : Chapter 05
    00: 27: 27.521 : : Chapter 06
    00: 33: 06.151 : : Chapter 07
    00: 39: 50.388 : : Chapter 08
    00: 47: 18.002 : : Chapter 09
    00: 52: 12.796 : : Chapter 10
    00: 58: 18.370 : : Chapter 11
    01: 04: 20.607 : : Chapter 12
    01: 12: 02.193 : : Chapter 13
    01: 16: 21.744 : : Chapter 14
    01: 20: 27.489 : : Chapter 15
    01: 26: 59.548 : : Chapter 16

    Скриншоты для ознакомления



    Время раздачи: 19 - 23 (до появления первых 3-5 скачавших)

    Онлайн видео Стражи Арктики


    Стражи Арктики / Arctic Justice (2019) BDRip [H.265 / 720p] [10-bit] торрент скачать бесплатно
    Рейтинг →
     (голосов: 1, оценка 3/5, голосовать можно 1 раз )

    Другие торренты по теме:

  • Стражи Арктики / Arctic Justice (2019) BDRip [H.264 / 1080p] [PR]
  • Стражи Арктики / Arctic Justice (2019) BDRip [H.264 / 1080p] [PR]
  • Стражи Арктики / Arctic Justice (2019) BDRip [H.264]
  • Стражи Арктики / Arctic Justice (2019) BDRemux [H.264 / 1080p]
  • Стражи Арктики / Arctic Justice (2019) BDRip [720p] ATV
  • Стражи Арктики / Arctic Justice (2019) BDRip [1080p] ATV
  • Стражи Арктики / Arctic Justice (2019) BDRip [H.264 / 1080p-LQ] [hand made 16:9]
  • Стражи Арктики / Arctic Justice (2019) BDRip [H.264 / 1080p]


    • Комментарии (0):

      Информация

      Информация

        Посетители, находящиеся в группе Гости, не могут оставлять комментарии в данной новости.

        ↓ Меню




        Популярное