Подписывайся на наш канал в Telegram https://t.me/torrentok и получи доступ к торрентам без ограничений!
.
Авторизация | Регистрация
bitok.xyz
Торрент скачать бесплатно Мультфильмы торрент скачать Ледяная принцесса / Tabaluga (2018) BDRip [H.264 / 720p] [PR] торрент скачать бесплатно


    Ледяная принцесса / Tabaluga (2018) BDRip [H.264 / 720p] [PR] торрент скачать бесплатно

    Дата: 23-02-2020, 05:00 | .torrent скачали: 0

    Ледяная принцесса / Tabaluga (2018) BDRip [H.264 / 720p] [PR]Производство: Германия, Канада, Awesometown Entertainment, Deutsche Columbia Pictures Film Produktion
    Жанр: Музыкальный, Приключения, Комедия
    Режиссер: Свен Унтервальдт мл.

    Описание

    Там, где круглый год лежат снега, а небо озаряет северное сияние, живет Ледяная принцесса Лилли с голубыми, как древний лед, волосами. Однажды Лилли и её друг, полярный медведь Лимбо, встречают юного дракона, который не умеет извергать пламя. Лилли обещает помочь ему. Но путь, который их ждет, будет не из легких, впереди новых друзей ждет немало приключений и опасных испытаний.

    Возраст: 6+ (зрителям, достигшим 6 лет)
    Рейтинг MPAA: PG (рекомендуется присутствие родителей)
    Дата мировой премьеры: 25 ноября 2018
    Дата российской премьеры: 25 января 2020, Наше Кино 3D
    Продолжительность: 01: 26: 36
    Качество видео: BDRip 720p
    Перевод: Дублированный (iTunes)
    Субтитры: отсутствуют
    Видео: AVC/H.264, 1280x696, 4009 Kbps
    Аудио: AC3, 6 ch, 384 Kbps , Русский (DUB iTunes)
    Общее
    Уникальный идентификатор : 213445035232255768687187448002861056725 (0xA09404BB54FBE6829DA3084F9CBFC2D5)
    Полное имя : D: MULTLedyanaya.printsessa.2018.720p.BluRay.mkv
    Формат : Matroska
    Версия формата : Version 4
    Размер файла : 2, 66 Гбайт
    Продолжительность : 1 ч. 26 м.
    Режим общего битрейта : Переменный
    Общий поток : 4395 Кбит/сек
    Название фильма : ELEKTRI4KA.UNIONGANG
    Дата кодирования : UTC 2020-02-22 10: 33: 31
    Программа кодирования : mkvmerge v8.2.0 (\'World of Adventure\') 64bit
    Библиотека кодирования : libebml v1.3.1 + libmatroska v1.4.2
    Видео
    Идентификатор : 1
    Формат : AVC
    Формат/Информация : Advanced Video Codec
    Профиль формата : High@L4.1
    Настройки формата : CABAC/3 Ref Frames
    Параметр CABAC формата : Да
    Параметр RefFrames формата : 3 кадра
    Идентификатор кодека : V_MPEG4/ISO/AVC
    Продолжительность : 1 ч. 26 м.
    Вид битрейта : Переменный
    Битрейт : 4009 Кбит/сек
    Максимальный битрейт : 15, 0 Мбит/сек
    Ширина : 1280 пикселей
    Высота : 696 пикселей
    Соотношение сторон : 1, 85: 1
    Режим частоты кадров : Постоянный
    Частота кадров : 25, 000 кадров/сек
    Цветовое пространство : YUV
    Субдискретизация насыщенности : 4: 2: 0
    Битовая глубина : 8 бит
    Тип развёртки : Прогрессивная
    Бит/(Пиксели*Кадры) : 0.180
    Размер потока : 2, 42 Гбайт (91%)
    Библиотека кодирования : x264 core 157 r2935 545de2f
    Настройки программы : cabac=1/ref=4/deblock=1: 0: 0/analyse=0x3: 0x133/me=umh/subme=9/psy=1/psy_rd=1.00: 0.00/mixed_ref=1/me_range=24/chroma_me=1/trellis=2/8x8dct=1/cqm=0/deadzone=21, 11/fast_pskip=1/chroma_qp_offset=-2/threads=22/lookahead_threads=1/sliced_threads=0/slices=4/nr=0/decimate=1/interlaced=0/bluray_compat=1/constrained_intra=0/bframes=3/b_pyramid=1/b_adapt=2/b_bias=0/direct=3/weightb=1/open_gop=1/weightp=1/keyint=24/keyint_min=1/scenecut=40/intra_refresh=0/rc_lookahead=25/rc=crf/mbtree=0/crf=16.5/qcomp=0.60/qpmin=0/qpmax=51/qpstep=4/vbv_maxrate=15000/vbv_bufsize=15000/crf_max=0.0/nal_hrd=vbr/filler=0/ip_ratio=1.40/pb_ratio=1.30/aq=0
    Язык : German
    Default : Да
    Forced : Нет
    Цветовой диапазон : Limited
    Основные цвета : BT.709
    Характеристики трансфера : BT.709
    Коэффициенты матрицы : BT.709
    Аудио
    Идентификатор : 2
    Формат : AC-3
    Формат/Информация : Audio Coding 3
    Коммерческое название : Dolby Digital
    Идентификатор кодека : A_AC3
    Продолжительность : 1 ч. 26 м.
    Вид битрейта : Постоянный
    Битрейт : 384 Кбит/сек
    Каналы : 6 каналов
    ChannelLayout : L R C LFE Ls Rs
    Частота : 48, 0 КГц
    Частота кадров : 31, 250 кадров/сек (1536 SPF)
    Метод сжатия : С потерями
    Размер потока : 238 Мбайт (9%)
    Заголовок : iTunes
    Язык : Russian
    ServiceKind/String : Complete Main
    Default : Да
    Forced : Нет
    Меню
    00: 00: 00.000 : de: 00: 00: 00.000
    00: 06: 09.080 : de: 00: 06: 09.080
    00: 10: 52.920 : de: 00: 10: 52.920
    00: 15: 00.400 : de: 00: 15: 00.400
    00: 23: 17.240 : de: 00: 23: 17.240
    00: 28: 00.440 : de: 00: 28: 00.440
    00: 31: 48.440 : de: 00: 31: 48.440
    00: 35: 14.920 : de: 00: 35: 14.920
    00: 42: 00.440 : de: 00: 42: 00.440
    00: 45: 25.400 : de: 00: 45: 25.400
    00: 49: 46.720 : de: 00: 49: 46.720
    00: 55: 14.400 : de: 00: 55: 14.400
    00: 59: 42.360 : de: 00: 59: 42.360
    01: 06: 09.280 : de: 01: 06: 09.280
    01: 15: 03.800 : de: 01: 15: 03.800
    01: 20: 49.280 : de: 01: 20: 49.280

    Скриншоты для ознакомления



    Все одноименные релизы в Клубе
    Время раздачи: с 5: 00 до 19: 00 мск (до появления первых 3-5 скачавших)

    Онлайн видео Ледяная принцесса


    Ледяная принцесса / Tabaluga (2018) BDRip [H.264 / 720p] [PR] торрент скачать бесплатно
    Рейтинг →
     (голосов: 1, оценка 4/5, голосовать можно 1 раз )

    Другие торренты по теме:

  • Сергей Садов | Ледяная принцесса [Книги 1-2] (2017) [MP3]
  • Ледяная принцесса / Tabaluga (2018) WEB-DL [H.264 / 1080p-LQ]
  • Ледяная принцесса / Tabaluga (2018) BDRip [H.264 / 1080p] [PR]


    • Комментарии (0):

      Информация

      Информация

        Посетители, находящиеся в группе Гости, не могут оставлять комментарии в данной новости.