ВАЖНО! Сайт скоро заблокируют! Подписывайся на наш канал в Telegram https://t.me/torrentok и получи доступ к торрентам без ограничений!
.
Авторизация | Регистрация
bitok.xyz
Торрент скачать бесплатно Мультфильмы торрент скачать Снежная Королева: Зазеркалье (2018) BDRip [H.264 / 720p] [GER Transfer] торрент скачать бесплатно


    Снежная Королева: Зазеркалье (2018) BDRip [H.264 / 720p] [GER Transfer] торрент скачать бесплатно

    Дата: 23-02-2020, 05:00 | .torrent скачали: 0

    Снежная Королева: Зазеркалье (2018) BDRip [H.264 / 720p] [GER Transfer]Производство: Россия/Централ Партнершип, Союзмультфильм, Wizart Animation
    Жанр: мультфильм, комедия, приключения, семейный, фэнтези
    Режиссер: Алексей Цицилин, Роберт Ленс

    Описание

    Могущественный король Харальд чуть не потерял семью из-за Снежной Королевы. Он находит способ очистить мир от волшебства — все обладатели магических способностей отныне заточены в Зазеркалье. Остановить его и не дать сказке навсегда исчезнуть из нашего мира может только Герда. Ведь ее главная сила не в волшебстве, а вере в добро и дружбу. В новом приключении на помощь Герде придут тролли, пираты и даже сама Снежная Королева.

    Возраст: 6+ (зрителям, достигшим 6 лет)
    Релиз от: TeamHD
    Продолжительность: 01: 27: 33
    Качество видео: BDRip 720p
    Субтитры: английские
    Видео: AVC/H.264, 1280x534, ~4837 Kbps
    Аудио 1: AC3, 6 ch, 640 kbps, Русский (DUB Blu-ray GER)
    Аудио 2: AC3, 6 ch, 640 kbps, Английский
    Общее
    Уникальный идентификатор : 137301865521920370439056339144199389586 (0x674B609EC95785DB790C1EFA04B04192)
    Полное имя : D: MULTSnezhnaya.Koroleva.Zazerkale.2018.720p.BluRay.mkv
    Формат : Matroska
    Версия формата : Version 4
    Размер файла : 3, 74 Гбайт
    Продолжительность : 1 ч. 27 м.
    Общий поток : 6118 Кбит/сек
    Название фильма : Снежная Королева: Зазеркалье (2018)
    Дата кодирования : UTC 2020-02-17 02: 26: 31
    Программа кодирования : mkvmerge v38.0.0 (\'The Silent Type\') 64-bit
    Библиотека кодирования : libebml v1.3.9 + libmatroska v1.5.2
    Видео
    Идентификатор : 1
    Формат : AVC
    Формат/Информация : Advanced Video Codec
    Профиль формата : High@L4.1
    Настройки формата : CABAC/12 Ref Frames
    Параметр CABAC формата : Да
    Параметр RefFrames формата : 12 кадров
    Идентификатор кодека : V_MPEG4/ISO/AVC
    Продолжительность : 1 ч. 27 м.
    Битрейт : 4837 Кбит/сек
    Ширина : 1280 пикселей
    Высота : 534 пикселя
    Соотношение сторон : 2, 40: 1
    Режим частоты кадров : Постоянный
    Частота кадров : 24, 000 кадра/сек
    Цветовое пространство : YUV
    Субдискретизация насыщенности : 4: 2: 0
    Битовая глубина : 8 бит
    Тип развёртки : Прогрессивная
    Бит/(Пиксели*Кадры) : 0.295
    Размер потока : 2, 96 Гбайт (79%)
    Заголовок : potroks
    Библиотека кодирования : x264 core 157 r2958 57baac4
    Настройки программы : cabac=1/ref=12/deblock=1: -1: -1/analyse=0x3: 0x133/me=umh/subme=11/psy=1/psy_rd=1.05: 0.05/mixed_ref=1/me_range=48/chroma_me=1/trellis=2/8x8dct=1/cqm=0/deadzone=21, 11/fast_pskip=0/chroma_qp_offset=-3/threads=13/lookahead_threads=3/sliced_threads=0/nr=0/decimate=0/interlaced=0/bluray_compat=0/constrained_intra=0/bframes=10/b_pyramid=2/b_adapt=2/b_bias=0/direct=3/weightb=1/open_gop=0/weightp=2/keyint=240/keyint_min=23/scenecut=40/intra_refresh=0/rc_lookahead=100/rc=2pass/mbtree=0/bitrate=4837/ratetol=1.0/qcomp=0.70/qpmin=0/qpmax=69/qpstep=4/cplxblur=20.0/qblur=0.5/vbv_maxrate=50000/vbv_bufsize=6500/nal_hrd=none/filler=0/ip_ratio=1.40/pb_ratio=1.30/aq=1: 0.70
    Язык : Russian
    Default : Да
    Forced : Нет
    Цветовой диапазон : Limited
    Основные цвета : BT.709
    Характеристики трансфера : BT.709
    Коэффициенты матрицы : BT.709
    Аудио #1
    Идентификатор : 2
    Формат : AC-3
    Формат/Информация : Audio Coding 3
    Коммерческое название : Dolby Digital
    Идентификатор кодека : A_AC3
    Продолжительность : 1 ч. 27 м.
    Вид битрейта : Постоянный
    Битрейт : 640 Кбит/сек
    Каналы : 6 каналов
    ChannelLayout : L R C LFE Ls Rs
    Частота : 48, 0 КГц
    Частота кадров : 31, 250 кадров/сек (1536 SPF)
    Метод сжатия : С потерями
    Размер потока : 401 Мбайт (10%)
    Заголовок : Original | DD 5.1 @ 640 kbps - Blu-ray GER
    Язык : Russian
    ServiceKind/String : Complete Main
    Default : Да
    Forced : Нет
    Аудио #2
    Идентификатор : 3
    Формат : AC-3
    Формат/Информация : Audio Coding 3
    Коммерческое название : Dolby Digital
    Идентификатор кодека : A_AC3
    Продолжительность : 1 ч. 27 м.
    Вид битрейта : Постоянный
    Битрейт : 640 Кбит/сек
    Каналы : 6 каналов
    ChannelLayout : L R C LFE Ls Rs
    Частота : 48, 0 КГц
    Частота кадров : 31, 250 кадров/сек (1536 SPF)
    Метод сжатия : С потерями
    Размер потока : 401 Мбайт (10%)
    Заголовок : Dub | DD 5.1 @ 640 kbps
    Язык : English
    ServiceKind/String : Complete Main
    Default : Нет
    Forced : Нет
    Текст
    Идентификатор : 4
    Формат : UTF-8
    Идентификатор кодека : S_TEXT/UTF8
    Идентификатор кодека/Информация : UTF-8 Plain Text
    Продолжительность : 1 ч. 16 м.
    Битрейт : 48 бит/сек
    ElementCount : 899
    Размер потока : 27, 4 Кбайт (0%)
    Заголовок : Full
    Язык : English
    Default : Нет
    Forced : Нет
    Меню
    00: 00: 00.000 : ru: Chapter 01
    00: 08: 10.415 : ru: Chapter 02
    00: 15: 04.041 : ru: Chapter 03
    00: 22: 39.333 : ru: Chapter 04
    00: 28: 12.375 : ru: Chapter 05
    00: 36: 42.250 : ru: Chapter 06
    00: 41: 35.916 : ru: Chapter 07
    00: 49: 17.875 : ru: Chapter 08
    00: 56: 47.708 : ru: Chapter 09
    01: 03: 48.458 : ru: Chapter 10
    01: 11: 00.666 : ru: Chapter 11
    01: 17: 34.625 : ru: Chapter 12

    Скриншоты для ознакомления



    Все одноименные релизы в Клубе
    Время раздачи: c 5 до 19 по мск (до появления первых 3-5 скачавших)

    Онлайн видео Снежная Королева: Зазеркалье (2018) BDRip [H.264


    Снежная Королева: Зазеркалье (2018) BDRip [H.264 / 720p] [GER Transfer] торрент скачать бесплатно
    Рейтинг →
     (голосов: 1, оценка 4/5, голосовать можно 1 раз )

    Другие торренты по теме:

  • Снежная королева 2: Перезаморозка (2014) WEBRip скачать через торрент бесплатно
  • Снежная королева 2: Перезаморозка (2014) WEBRip [H.264 / 720p-LQ] скачать через торрент бесплатно
  • Снежная королева 2: Перезаморозка (2014) WEBRip [H.264] скачать через торрент бесплатно
  • Снежная королева 2: Перезаморозка (2014) WEB-DLRip
  • Снежная королева 2: Перезаморозка (2014) WEB-DL [720p]
  • Снежная королева 2: Перезаморозка (2014) WEB-DL [H.264 / 1080p-LQ]
  • Виктор Запаренко | Поиграем в сказку. Щелкунчик. Снежная королева. Книга-игра. 6-8 лет (2002) [PDF] скачать через торрент бесплатно
  • Снежная королева 2: Перезаморозка (2014) BDRip 3D [H.264 / 1080p] [Вертикальная анаморфная стереопара] [hand made 16:9]


    • Комментарии (0):

      Информация

      Информация

        Посетители, находящиеся в группе Гости, не могут оставлять комментарии в данной новости.

        ↓ Меню




        Популярное

        Роботы-пожарные / Fire Robo (2016) WEB-DLRip [H.264 / 720p-LQ] (сезон 1, серии 1-26 из 26) [Обновляемая]

        (скачиваний: 6)
        Лея Уотерс | Переключение на силу. Как научиться видеть в детях сильные стороны, чтобы помочь им расцвести (2019) [EPUB]

        (скачиваний: 5)
        Сергей Матвеев | Полный курс английского языка для лентяев (2016) [PDF]

        (скачиваний: 5)
        Жила-была царевна (2015-2019) WEB-DLRip [H.264 / 720p-LQ] (сезон 1, серии 1-18 из 26) [Обновляемая]

        (скачиваний: 4)
        Металионы / Metalions (2018-2019) WEB-DLRip [H.264 / 720p-LQ] (сезон 1, серии 1-52 из 52) [Обновляемая]

        (скачиваний: 4)
        Алексей Марков | Хулиганская экономика. Финансовые рынки для хулиганов и их родителей (2019) [EPUB]

        (скачиваний: 4)
        Серия книг | Образовательная манга (2010 - 2015) [PDF]

        (скачиваний: 4)
        Александр Нилл | Воспитание свободой. Школа Саммерхилл (2020) [EPUB]

        (скачиваний: 4)
        Мариэтта Чудакова | Рассказы про Россию. 1861—1922 (2020) [EPUB]

        (скачиваний: 3)
        Алена Зюрикова | Дзен в декрете, или Как не сойти с ума от счастья. Режим, сон, воспитание и хорошее настроение (2020) [EPUB]

        (скачиваний: 3)