ВАЖНО! Сайт скоро заблокируют! Подписывайся на наш канал в Telegram https://t.me/torrentok и получи доступ к торрентам без ограничений!
.
Авторизация | Регистрация
bitok.xyz
Торрент скачать бесплатно Мультфильмы торрент скачать Скуби Ду и Лох-несское Чудовище / Scooby-Doo and the Loch Ness Monster (2004) BDRip [H.264 / 1080p-LQ] торрент скачать бесплатно


    Скуби Ду и Лох-несское Чудовище / Scooby-Doo and the Loch Ness Monster (2004) BDRip [H.264 / 1080p-LQ] торрент скачать бесплатно

    Дата: 23-02-2020, 05:00 | .torrent скачали: 0

    Скуби Ду и Лох-несское Чудовище / Scooby-Doo and the Loch Ness Monster (2004) BDRip [H.264 / 1080p-LQ]Производство: США/Hanna-Barbera Productions, Warner Bros. Animation
    Жанр: Приключения, Комедия
    Режиссер: Скот Джеральдс, Джо Сичта

    Описание

    Скуби Ду, Шегги и вся команда Корпорации Тайна, отправляются в путешествие в Шотландию. И там, совершенно неожиданно, им приходится взяться за расследование самой древней тайны человечества - тайны Лохнесского чудовища. Конечно, кое-кто не верил в его существование, но огромная зловещая тень за ночными окнами древнего замка заставила весёлых друзей взяться за расследование...

    Возраст: 6+ (зрителям, достигшим 6 лет)
    Продолжительность: 01: 14: 37
    Качество видео: BDRip
    Перевод: Дублированный, многоголосый закадровый
    Субтитры: английские (полные)
    Видео: AVC/H.264, 1920х1080, ~5, 0 Mbps
    Аудио #1: AC3, 2 ch, 192 kbps - русский (дубляж, Пифагор)
    Аудио #2: AC3, 2 ch, 192 kbps - русский (MVO, НТВ+)
    Аудио #3: AC3, 2 ch, 192 kbps - русский (MVO, Интер-Фильм)
    Аудио #4: AC3, 2 ch, 192 kbps - русский (MVO)
    Аудио #5: AC3, 6 ch, 640 kbps - английский
    x264 info: frame I: 928 Avg QP: 14.50 size: 205247
    x264 info: frame P: 36499 Avg QP: 17.03 size: 48312
    x264 info: frame B: 69854 Avg QP: 17.66 size: 12058
    Unique ID : 116367104110536314233818315801929596385 (0x578B7D3162A75F81C5CB158E125E3DE1)
    Complete name : D: TempNNMScooby-Doo! and The Loch Ness Monster2004.1080p.mkv
    Format : Matroska
    Format version : Version 4/Version 2
    File size : 3.34 GiB
    Duration : 1h 14mn
    Overall bit rate : 6 414 Kbps
    Movie name : 2004 Scooby-Doo! and The Loch Ness Monster
    Writing library : Lavf57.71.100
    Video
    ID : 1
    Format : AVC
    Format/Info : Advanced Video Codec
    Format profile : High@L4.1
    Format settings, CABAC : Yes
    Format settings, ReFrames : 4 frames
    Codec ID : V_MPEG4/ISO/AVC
    Duration : 1h 14mn
    Bit rate : 5 000 Kbps
    Width : 1 920 pixels
    Height : 1 080 pixels
    Display aspect ratio : 16: 9
    Frame rate mode : Constant
    Frame rate : 23.976 fps
    Color space : YUV
    Chroma subsampling : 4: 2: 0
    Bit depth : 8 bits
    Scan type : Progressive
    Bits/(Pixel*Frame) : 0.101
    Stream size : 2.54 GiB (76%)
    Title : Mr. Kimiko
    Writing library : x264 core 157 r2935 545de2f
    Encoding settings : cabac=1/ref=4/deblock=1: -3: -3/analyse=0x3: 0x113/me=umh/subme=9/psy=1/psy_rd=1.05: 0.10/mixed_ref=1/me_range=24/chroma_me=1/trellis=2/8x8dct=1/cqm=0/deadzone=21, 11/fast_pskip=0/chroma_qp_offset=-3/threads=5/lookahead_threads=1/sliced_threads=0/nr=0/decimate=0/interlaced=0/bluray_compat=0/constrained_intra=0/bframes=6/b_pyramid=2/b_adapt=2/b_bias=0/direct=1/weightb=1/open_gop=0/weightp=2/keyint=240/keyint_min=24/scenecut=40/intra_refresh=0/rc=2pass/mbtree=0/bitrate=5000/ratetol=1.0/qcomp=0.70/qpmin=3/qpmax=69/qpstep=4/cplxblur=20.0/qblur=0.5/ip_ratio=1.40/pb_ratio=1.30/aq=2: 1.00
    Language : English
    Default : Yes
    Forced : No
    Audio #1
    ID : 2
    Format : AC-3
    Format/Info : Audio Coding 3
    Mode extension : CM (complete main)
    Format settings, Endianness : Big
    Codec ID : A_AC3
    Duration : 1h 14mn
    Bit rate mode : Constant
    Bit rate : 192 Kbps
    Channel(s) : 2 channels
    Channel positions : Front: L R
    Sampling rate : 48.0 KHz
    Bit depth : 16 bits
    Compression mode : Lossy
    Stream size : 102 MiB (3%)
    Title : Dub Пифагор 2011
    Language : Russian
    Default : Yes
    Forced : No
    Audio #2
    ID : 3
    Format : AC-3
    Format/Info : Audio Coding 3
    Mode extension : CM (complete main)
    Format settings, Endianness : Big
    Codec ID : A_AC3
    Duration : 1h 14mn
    Bit rate mode : Constant
    Bit rate : 192 Kbps
    Channel(s) : 2 channels
    Channel positions : Front: L R
    Sampling rate : 48.0 KHz
    Bit depth : 16 bits
    Compression mode : Lossy
    Stream size : 102 MiB (3%)
    Title : DVO НТВ+/СТС/CP-Дистрибуция
    Language : Russian
    Default : No
    Forced : No
    Audio #3
    ID : 4
    Format : AC-3
    Format/Info : Audio Coding 3
    Mode extension : CM (complete main)
    Format settings, Endianness : Big
    Codec ID : A_AC3
    Duration : 1h 14mn
    Bit rate mode : Constant
    Bit rate : 192 Kbps
    Channel(s) : 2 channels
    Channel positions : Front: L R
    Sampling rate : 48.0 KHz
    Bit depth : 16 bits
    Compression mode : Lossy
    Stream size : 102 MiB (3%)
    Title : MVO Интер-Фильм 2003
    Language : Russian
    Default : No
    Forced : No
    Audio #4
    ID : 5
    Format : AC-3
    Format/Info : Audio Coding 3
    Mode extension : CM (complete main)
    Format settings, Endianness : Big
    Codec ID : A_AC3
    Duration : 1h 14mn
    Bit rate mode : Constant
    Bit rate : 192 Kbps
    Channel(s) : 2 channels
    Channel positions : Front: L R
    Sampling rate : 48.0 KHz
    Bit depth : 16 bits
    Compression mode : Lossy
    Stream size : 102 MiB (3%)
    Title : MVO
    Language : Russian
    Default : No
    Forced : No
    Audio #5
    ID : 6
    Format : AC-3
    Format/Info : Audio Coding 3
    Mode extension : CM (complete main)
    Format settings, Endianness : Big
    Codec ID : A_AC3
    Duration : 1h 14mn
    Bit rate mode : Constant
    Bit rate : 640 Kbps
    Channel(s) : 6 channels
    Channel positions : Front: L C R, Side: L R, LFE
    Sampling rate : 48.0 KHz
    Bit depth : 16 bits
    Compression mode : Lossy
    Stream size : 342 MiB (10%)
    Language : English
    Default : No
    Forced : No
    Text
    ID : 7
    Format : UTF-8
    Codec ID : S_TEXT/UTF8
    Codec ID/Info : UTF-8 Plain Text
    Language : English
    Default : Yes
    Forced : No
    Menu
    00: 00: 00.000 : : 1. Rocking the boat
    00: 05: 21.738 : : 2. Danger-prone
    00: 14: 05.970 : : 3. Nothing to be afraid of
    00: 20: 52.501 : : 4. Brothers Forever chase
    00: 26: 48.940 : : 5. Looking for trouble
    00: 33: 19.247 : : 6. Net loss
    00: 37: 02.053 : : 7. Brown Dog chase
    00: 40: 29.969 : : 8. Minisub monster hunt
    00: 47: 45.112 : : 9. Race to the surface
    00: 52: 42.159 : : 10. Come and Get It chase
    00: 55: 54.517 : : 11. Right on top of it
    01: 02: 39.380 : : 12. Double Nessie trouble
    01: 07: 36.343 : : 13. Unsolved mystery
    01: 11: 31.078 : : 14. End Credits

    Скриншоты для ознакомления



    Все одноименные релизы в Клубе
    Время раздачи: 24/7 (до появления первых 3-5 скачавших)

    Онлайн видео Скуби Ду и Лох-несское Чудовище


    Скуби Ду и Лох-несское Чудовище / Scooby-Doo and the Loch Ness Monster (2004) BDRip [H.264 / 1080p-LQ] торрент скачать бесплатно
    Рейтинг →
     (голосов: 1, оценка 4/5, голосовать можно 1 раз )

    Другие торренты по теме:

  • Скуби-Ду: Франкен-монстр / Scooby-Doo! Frankencreepy (2014) BDRemux (1080p) скачать через торрент бесплатно
  • Скуби-Ду и KISS: Тайна рок-н-ролла / Scooby-Doo! And Kiss: Rock and Roll Mystery (2015) BDRip [H.264 / 720p] скачать через торрент бесплатно
  • Скуби-Ду и KISS: Тайна рок-н-ролла / Scooby-Doo! And Kiss: Rock and Roll Mystery (2015) HDRip скачать через торрент бесплатно
  • Скуби-Ду и KISS: Тайна рок-н-ролла / Scooby-Doo! And Kiss: Rock and Roll Mystery (2015) BDRip [H.264 / 1080p] скачать через торрент бесплатно
  • Скуби-Ду и KISS: Тайна рок-н-ролла / Scooby-Doo! And Kiss: Rock and Roll Mystery (2015) BDRemux [H.264 / 1080p] скачать через торрент бесплатно
  • Скуби-Ду и KISS: Тайна рок-н-ролла / Scooby-Doo! And Kiss: Rock and Roll Mystery (2015) BDRip [576p] iPad скачать через торрент бесплатно
  • Скуби-Ду и KISS: Тайна рок-н-ролла / Scooby-Doo! And Kiss: Rock and Roll Mystery (2015) BDRip [720p] ATV скачать через торрент бесплатно
  • Скуби-Ду и KISS: Тайна рок-н-ролла / Scooby-Doo! And Kiss: Rock and Roll Mystery (2015) BDRip [1080p] ATV скачать через торрент бесплатно


    • Комментарии (0):

      Информация

      Информация

        Посетители, находящиеся в группе Гости, не могут оставлять комментарии в данной новости.

        ↓ Меню




        Популярное

        Роботы-пожарные / Fire Robo (2016) WEB-DLRip [H.264 / 720p-LQ] (сезон 1, серии 1-26 из 26) [Обновляемая]

        (скачиваний: 6)
        Лея Уотерс | Переключение на силу. Как научиться видеть в детях сильные стороны, чтобы помочь им расцвести (2019) [EPUB]

        (скачиваний: 5)
        Сергей Матвеев | Полный курс английского языка для лентяев (2016) [PDF]

        (скачиваний: 5)
        Жила-была царевна (2015-2019) WEB-DLRip [H.264 / 720p-LQ] (сезон 1, серии 1-18 из 26) [Обновляемая]

        (скачиваний: 4)
        Металионы / Metalions (2018-2019) WEB-DLRip [H.264 / 720p-LQ] (сезон 1, серии 1-52 из 52) [Обновляемая]

        (скачиваний: 4)
        Алексей Марков | Хулиганская экономика. Финансовые рынки для хулиганов и их родителей (2019) [EPUB]

        (скачиваний: 4)
        Серия книг | Образовательная манга (2010 - 2015) [PDF]

        (скачиваний: 4)
        Александр Нилл | Воспитание свободой. Школа Саммерхилл (2020) [EPUB]

        (скачиваний: 4)
        Мариэтта Чудакова | Рассказы про Россию. 1861—1922 (2020) [EPUB]

        (скачиваний: 3)
        Алена Зюрикова | Дзен в декрете, или Как не сойти с ума от счастья. Режим, сон, воспитание и хорошее настроение (2020) [EPUB]

        (скачиваний: 3)