ВАЖНО! Сайт скоро заблокируют! Подписывайся на наш канал в Telegram https://t.me/torrentok и получи доступ к торрентам без ограничений!
.
Авторизация | Регистрация
bitok.xyz
Торрент скачать бесплатно Мультфильмы торрент скачать VA - Поет Радионяня (2007) [FLAC|Lossless|tracks + .cue]<Детские песни> торрент скачать бесплатно


    VA - Поет Радионяня (2007) [FLAC|Lossless|tracks + .cue]<Детские песни> торрент скачать бесплатно

    Дата: 23-02-2020, 05:00 | .torrent скачали: 0

    VA - Поет Радионяня (2007) [FLAC|Lossless|tracks + .cue]<Детские песни>Год: 2007
    Жанр: Детские песни
    Издание: Арк-Систем ARK CD 006
    Источник (релизер): eloychik ®
    Продолжительность: 00: 48: 08
    Кодек: FLAC
    Битрейт: Lossless
    Тип рипа: tracks + .cue
    Треклист:
    01. Н. Литвинов, А. Лившиц, А. Левенбук -
    - Песенка Радионяни
    02. Н. Литвинов - Песенка по патефон
    03. Н. Литвинов, А. Лившиц, А. Левенбук -
    - Как сладко спать
    04. Н. Литвинов, А. Лившиц, В. Винокур -
    - Ай-яй-яй
    05. Н. Литвинов, А. Лившиц, А. Левенбук -
    - Хлопай-топай
    06. Н. Литвинов, А. Лившиц, А. Левенбук -
    - Ссора07. Н. Литвинов, А. Левенбук, л. Шимелов - В кино
    08. Н. Литвинов, А. Лившиц, А. Левенбук - Песенка о почтовом индексе
    09. А. Левенбук, л. Шимелов - А может быть, ворона...
    10. Н. Литвинов - Без друга невесело совсем
    11. Н. Литвинов, А. Лившиц, А. Левенбук - Кое-как
    12. Н. Литвинов, А. Лившиц, А. Левенбук - Каникулы
    13. Н. Литвинов, А. Лившиц, л. Шимелов - Лишние слова
    14. Н. Литвинов, А. Лившиц, А. Левенбук - Игра
    15. Н. Литвинов - Карусельные лошадки
    16. Н. Литвинов, А. Лившиц, А. Левенбук - Грустный день
    17. А. Лившиц, А. Левенбук и вок.анс. - Песенка моя
    18. Н. Литвинов, А. Лившиц, А. Левенбук - Весна-ещё не лето
    19. Н. Литвинов, А. Лившиц, А. Левенбук - Глазунья
    20. Н. Литвинов, А. Лившиц, А. Левенбук - Воскресенье
    21. Н. Литвинов, А. Лившиц, А. Левенбук - Песенка о письмах
    22. А. Лившиц, А. Левенбук и вок.анс. - Песня о дружбе
    23. Н. Литвинов, А. Лившиц, А. Левенбук - Финальная песенка Радионяни Код: выделить все
    Exact Audio Copy V1.3 from 2. September 2016
    Отчёт EAC об извлечении, выполненном 17. февраля 2020, 15:08
    Various Artists/Поёт Радионяня
    Дисковод: Optiarc DVD RW AD-7240S Adapter: 1 ID: 1
    Режим чтения : Достоверность
    Использование точного потока : Да
    Отключение кэша аудио : Да
    Использование указателей C2 : Нет
    Коррекция смещения при чтении : 48
    Способность читать области Lead-in и Lead-out : Нет
    Заполнение пропущенных сэмплов тишиной : Да
    Удаление блоков с тишиной в начале и конце : Нет
    При вычислениях CRC использовались нулевые сэмплы : Да
    Интерфейс : Встроенный Win32-интерфейс для Win NT/2000
    Обработка зазоров : Добавлено к следующему треку
    Выходной формат : Пользовательский кодировщик
    Выбранный битрейт : 128 kBit/s
    Качество : Высокий
    Добавление ID3-тега : Нет
    Утилита сжатия : C:Program Files (x86)Exact Audio CopyFlacflac.exe
    Дополнительные параметры : -8 -V -T TITLE=%title% -T ARTIST=%artist% -T ALBUMARTIST=%albumartist% -T ALBUM=%albumtitle% -T DATE=%year% -T TRACKNUMBER=%tracknr% -T TRACKTOTAL=%numtracks% -T GENRE=%genre% -T COMMENT=%comment% -T PERFORMER=%albuminterpret% -T COMPOSER=%composer% %source% -o %dest%
    TOC извлечённого CD
    Трек | Старт | Длительность | Начальный сектор | Конечный сектор
    ---------------------------------------------------------------------
    1 | 0:00.00 | 1:29.74 | 0 | 6748
    2 | 1:29.74 | 2:01.68 | 6749 | 15891
    3 | 3:31.67 | 2:05.33 | 15892 | 25299
    4 | 5:37.25 | 1:17.19 | 25300 | 31093
    5 | 6:54.44 | 1:05.09 | 31094 | 35977
    6 | 7:59.53 | 1:08.62 | 35978 | 41139
    7 | 9:08.40 | 2:08.29 | 41140 | 50768
    8 | 11:16.69 | 1:28.17 | 50769 | 57385
    9 | 12:45.11 | 4:26.12 | 57386 | 77347
    10 | 17:11.23 | 3:24.40 | 77348 | 92687
    11 | 20:35.63 | 1:41.25 | 92688 | 100287
    12 | 22:17.13 | 2:03.53 | 100288 | 109565
    13 | 24:20.66 | 2:56.64 | 109566 | 122829
    14 | 27:17.55 | 2:23.12 | 122830 | 133566
    15 | 29:40.67 | 2:11.21 | 133567 | 143412
    16 | 31:52.13 | 2:28.65 | 143413 | 154577
    17 | 34:21.03 | 2:48.00 | 154578 | 167177
    18 | 37:09.03 | 1:22.39 | 167178 | 173366
    19 | 38:31.42 | 1:49.35 | 173367 | 181576
    20 | 40:21.02 | 1:56.34 | 181577 | 190310
    21 | 42:17.36 | 1:57.58 | 190311 | 199143
    22 | 44:15.19 | 3:10.06 | 199144 | 213399
    23 | 47:25.25 | 0:42.37 | 213400 | 216586
    Трек 1
    Имя файла E:РаздачиNNMClub-eloychik ®Various Artists - Поет Радионяня [NNM-Club.to]1.Н. Литвинов, А. Лившиц, А. Левенбук - Песенка Радионяни.wav
    Длина предзазора 0:00:02.00
    Пиковый уровень 98.8 %
    Скорость извлечения 1.4 X
    Качество трека 99.8 %
    CRC теста 60FFCE50
    CRC копии 60FFCE50
    Трек не обнаружен в базе AccurateRip
    Копирование... OK
    Трек 2
    Имя файла E:РаздачиNNMClub-eloychik ®Various Artists - Поет Радионяня [NNM-Club.to]2.Н. Литвинов - Песенка по патефон.wav
    Пиковый уровень 98.8 %
    Скорость извлечения 2.1 X
    Качество трека 100.0 %
    CRC теста 44F12F6A
    CRC копии 44F12F6A
    Трек не обнаружен в базе AccurateRip
    Копирование... OK
    Трек 3
    Имя файла E:РаздачиNNMClub-eloychik ®Various Artists - Поет Радионяня [NNM-Club.to]3.Н. Литвинов, А. Лившиц, А. Левенбук - Как сладко спать.wav
    Пиковый уровень 98.8 %
    Скорость извлечения 2.2 X
    Качество трека 100.0 %
    CRC теста 4A793987
    CRC копии 4A793987
    Трек не обнаружен в базе AccurateRip
    Копирование... OK
    Трек 4
    Имя файла E:РаздачиNNMClub-eloychik ®Various Artists - Поет Радионяня [NNM-Club.to]4.Н. Литвинов, А. Лившиц, В. Винокур - Ай-яй-яй.wav
    Пиковый уровень 98.8 %
    Скорость извлечения 2.0 X
    Качество трека 100.0 %
    CRC теста 93D459D7
    CRC копии 93D459D7
    Трек не обнаружен в базе AccurateRip
    Копирование... OK
    Трек 5
    Имя файла E:РаздачиNNMClub-eloychik ®Various Artists - Поет Радионяня [NNM-Club.to]5.Н. Литвинов, А. Лившиц, А. Левенбук - Хлопай-топай.wav
    Пиковый уровень 98.7 %
    Скорость извлечения 2.0 X
    Качество трека 100.0 %
    CRC теста 3D7DA7F5
    CRC копии 3D7DA7F5
    Трек не обнаружен в базе AccurateRip
    Копирование... OK
    Трек 6
    Имя файла E:РаздачиNNMClub-eloychik ®Various Artists - Поет Радионяня [NNM-Club.to]6.Н. Литвинов, А. Лившиц, А. Левенбук - Ссора.wav
    Пиковый уровень 98.8 %
    Скорость извлечения 2.1 X
    Качество трека 100.0 %
    CRC теста 94BB4402
    CRC копии 94BB4402
    Трек не обнаружен в базе AccurateRip
    Копирование... OK
    Трек 7
    Имя файла E:РаздачиNNMClub-eloychik ®Various Artists - Поет Радионяня [NNM-Club.to]7.Н. Литвинов, А. Левенбук, л. Шимелов - В кино.wav
    Пиковый уровень 98.8 %
    Скорость извлечения 2.5 X
    Качество трека 100.0 %
    CRC теста 2693D970
    CRC копии 2693D970
    Трек не обнаружен в базе AccurateRip
    Копирование... OK
    Трек 8
    Имя файла E:РаздачиNNMClub-eloychik ®Various Artists - Поет Радионяня [NNM-Club.to]8.Н. Литвинов, А. Лившиц, А. Левенбук - Песенка о почтовом индексе.wav
    Пиковый уровень 98.8 %
    Скорость извлечения 2.3 X
    Качество трека 100.0 %
    CRC теста A72C4569
    CRC копии A72C4569
    Трек не обнаружен в базе AccurateRip
    Копирование... OK
    Трек 9
    Имя файла E:РаздачиNNMClub-eloychik ®Various Artists - Поет Радионяня [NNM-Club.to]9.А. Левенбук, л. Шимелов - А может быть, ворона....wav
    Длина предзазора 0:00:00.01
    Пиковый уровень 98.8 %
    Скорость извлечения 3.1 X
    Качество трека 100.0 %
    CRC теста FCB9C46A
    CRC копии FCB9C46A
    Трек не обнаружен в базе AccurateRip
    Копирование... OK
    Трек 10
    Имя файла E:РаздачиNNMClub-eloychik ®Various Artists - Поет Радионяня [NNM-Club.to]10.Н. Литвинов - Без друга невесело совсем.wav
    Пиковый уровень 98.8 %
    Скорость извлечения 2.8 X
    Качество трека 99.9 %
    CRC теста DB66A21C
    CRC копии DB66A21C
    Трек не обнаружен в базе AccurateRip
    Копирование... OK
    Трек 11
    Имя файла E:РаздачиNNMClub-eloychik ®Various Artists - Поет Радионяня [NNM-Club.to]11.Н. Литвинов, А. Лившиц, А. Левенбук - Кое-как.wav
    Пиковый уровень 98.8 %
    Скорость извлечения 2.9 X
    Качество трека 100.0 %
    CRC теста D9A2137B
    CRC копии D9A2137B
    Трек не обнаружен в базе AccurateRip
    Копирование... OK
    Трек 12
    Имя файла E:РаздачиNNMClub-eloychik ®Various Artists - Поет Радионяня [NNM-Club.to]12.Н. Литвинов, А. Лившиц, А. Левенбук - Каникулы.wav
    Пиковый уровень 98.8 %
    Скорость извлечения 3.0 X
    Качество трека 100.0 %
    CRC теста 9E46A167
    CRC копии 9E46A167
    Трек не обнаружен в базе AccurateRip
    Копирование... OK
    Трек 13
    Имя файла E:РаздачиNNMClub-eloychik ®Various Artists - Поет Радионяня [NNM-Club.to]13.Н. Литвинов, А. Лившиц, л. Шимелов - Лишние слова.wav
    Пиковый уровень 98.7 %
    Скорость извлечения 3.4 X
    Качество трека 100.0 %
    CRC теста 4BEFB88B
    CRC копии 4BEFB88B
    Трек не обнаружен в базе AccurateRip
    Копирование... OK
    Трек 14
    Имя файла E:РаздачиNNMClub-eloychik ®Various Artists - Поет Радионяня [NNM-Club.to]14.Н. Литвинов, А. Лившиц, А. Левенбук - Игра.wav
    Пиковый уровень 98.8 %
    Скорость извлечения 3.4 X
    Качество трека 100.0 %
    CRC теста 632B2D01
    CRC копии 632B2D01
    Трек не обнаружен в базе AccurateRip
    Копирование... OK
    Трек 15
    Имя файла E:РаздачиNNMClub-eloychik ®Various Artists - Поет Радионяня [NNM-Club.to]15.Н. Литвинов - Карусельные лошадки.wav
    Пиковый уровень 98.6 %
    Скорость извлечения 3.4 X
    Качество трека 100.0 %
    CRC теста 20B3C8A9
    CRC копии 20B3C8A9
    Трек не обнаружен в базе AccurateRip
    Копирование... OK
    Трек 16
    Имя файла E:РаздачиNNMClub-eloychik ®Various Artists - Поет Радионяня [NNM-Club.to]16.Н. Литвинов, А. Лившиц, А. Левенбук - Грустный день.wav
    Пиковый уровень 98.8 %
    Скорость извлечения 3.6 X
    Качество трека 100.0 %
    CRC теста C4373DCB
    CRC копии C4373DCB
    Трек не обнаружен в базе AccurateRip
    Копирование... OK
    Трек 17
    Имя файла E:РаздачиNNMClub-eloychik ®Various Artists - Поет Радионяня [NNM-Club.to]17.А. Лившиц, А. Левенбук и вок.анс - Песенка моя.wav
    Пиковый уровень 98.3 %
    Скорость извлечения 3.2 X
    Качество трека 99.9 %
    CRC теста 52EBF8EB
    CRC копии 52EBF8EB
    Трек не обнаружен в базе AccurateRip
    Копирование... OK
    Трек 18
    Имя файла E:РаздачиNNMClub-eloychik ®Various Artists - Поет Радионяня [NNM-Club.to]18.Н. Литвинов, А. Лившиц, А. Левенбук - Весна-ещё не лето.wav
    Пиковый уровень 95.0 %
    Скорость извлечения 3.1 X
    Качество трека 100.0 %
    CRC теста 30B7987D
    CRC копии 30B7987D
    Трек не обнаружен в базе AccurateRip
    Копирование... OK
    Трек 19
    Имя файла E:РаздачиNNMClub-eloychik ®Various Artists - Поет Радионяня [NNM-Club.to]19.Н. Литвинов, А. Лившиц, А. Левенбук - Глазунья.wav
    Пиковый уровень 98.8 %
    Скорость извлечения 3.5 X
    Качество трека 100.0 %
    CRC теста 3B2ABC82
    CRC копии 3B2ABC82
    Трек не обнаружен в базе AccurateRip
    Копирование... OK
    Трек 20
    Имя файла E:РаздачиNNMClub-eloychik ®Various Artists - Поет Радионяня [NNM-Club.to]20.Н. Литвинов, А. Лившиц, А. Левенбук - Воскресенье.wav
    Пиковый уровень 98.8 %
    Скорость извлечения 3.6 X
    Качество трека 100.0 %
    CRC теста 4BF8A10B
    CRC копии 4BF8A10B
    Трек не обнаружен в базе AccurateRip
    Копирование... OK
    Трек 21
    Имя файла E:РаздачиNNMClub-eloychik ®Various Artists - Поет Радионяня [NNM-Club.to]21.Н. Литвинов, А. Лившиц, А. Левенбук - Песенка о письмах.wav
    Пиковый уровень 98.8 %
    Скорость извлечения 3.7 X
    Качество трека 100.0 %
    CRC теста 34E44F4F
    CRC копии 34E44F4F
    Трек не обнаружен в базе AccurateRip
    Копирование... OK
    Трек 22
    Имя файла E:РаздачиNNMClub-eloychik ®Various Artists - Поет Радионяня [NNM-Club.to]22.А. Лившиц, А. Левенбук и вок.анс - Песня о дружбе.wav
    Пиковый уровень 98.8 %
    Скорость извлечения 4.2 X
    Качество трека 100.0 %
    CRC теста 6D061EF4
    CRC копии 6D061EF4
    Трек не обнаружен в базе AccurateRip
    Копирование... OK
    Трек 23
    Имя файла E:РаздачиNNMClub-eloychik ®Various Artists - Поет Радионяня [NNM-Club.to]23.Н. Литвинов, А. Лившиц, А. Левенбук - Финальная песенка Радионяни.wav
    Пиковый уровень 98.8 %
    Скорость извлечения 1.8 X
    Качество трека 99.7 %
    CRC теста 5DDE3A1A
    CRC копии 5DDE3A1A
    Трек не обнаружен в базе AccurateRip
    Копирование... OK
    Ни одного трека нет в базе AccurateRip
    Ошибок не произошло
    Конец отчёта
    ==== Контрольная сумма отчёта 3A85EB8A19702937D12E13B9E2DEB53BABFBBABE57B27A32E425492DB0EA460A ====
    Время раздачи: Пн-Пт с 17: 00 до 20: 00 и по возможности

    Онлайн видео VA - Поет Радионяня (2007) [FLAC


    VA - Поет Радионяня (2007) [FLAC|Lossless|tracks + .cue]<Детские песни> торрент скачать бесплатно
    Рейтинг →
     (голосов: 1, оценка 5/5, голосовать можно 1 раз )

    Другие торренты по теме:

  • Джо Дассен - Поет Джо Дассен (1980) [FLAC 2.0 96 / 24|traks(Vinil-Rip)]<Pop, Chanson> скачать через торрент бесплатно
  • Leo Sayer - Поет Лео Сейер (1980) [FLAC 2.0 24 / 96|traks(Vinil-Rip)]<Pop Rock, Disco> скачать через торрент бесплатно
  • Далида - Поет Далида (1984) [FLAC 2.0 24 / 192|traks(Vinyl-Rip)]<Pop> скачать через торрент бесплатно
  • Борис Гребенщиков - Борис Гребенщиков поет песни Булата Окуджавы (1999) [FLAC|Lossless|image + .cue] <Rock, Авторская песня> скачать через торрент бесплатно
  • Поет Лариса Мондрус (60-е годы) DVDRip [H.264] [hand made colored] скачать через торрент бесплатно
  • Поет Эдита Пьеха (1964) SATRip [H.264] [hand made colored] скачать через торрент бесплатно
  • Женщина которая поет (1978) DVDRip [H.264]
  • У меня есть каравелла. Поет Эдита Пьеха (1968) TVRip [H.264] [hand made colored]


    • Комментарии (0):

      Информация

      Информация

        Посетители, находящиеся в группе Гости, не могут оставлять комментарии в данной новости.

        ↓ Меню




        Популярное

        Металионы / Metalions (2018-2019) WEB-DLRip [H.264 / 720p-LQ] (сезон 1, серии 1-52 из 52) [Обновляемая]

        (скачиваний: 11)
        Фиксики против Кработов (2019) WEB-DL [H.264 / 1080p-LQ]

        (скачиваний: 10)
        Роботы-пожарные / Fire Robo (2016) WEB-DLRip [H.264 / 720p-LQ] (сезон 1, серии 1-26 из 26) [Обновляемая]

        (скачиваний: 8)
        Фиксики против Кработов (2019) WEB-DLRip

        (скачиваний: 7)
        Жила-была царевна (2015-2019) WEB-DLRip [H.264 / 720p-LQ] (сезон 1, серии 1-18 из 26) [Обновляемая]

        (скачиваний: 7)
        Роберт Кийосаки | Богатый папа, бедный папа для подростков (2014) [PDF, FB2]

        (скачиваний: 5)
        Канакина В. П., Горецкий В. Г. Электронное приложение к учебнику «Русский язык», 2 класс (2012) [ISO] скачать через торрент бесплатно

        (скачиваний: 5)
        Александр Нилл | Воспитание свободой. Школа Саммерхилл (2020) [EPUB]

        (скачиваний: 5)
        Kaze no Na wa Amnesia / A Wind Named Amnesia / Ветер амнезии [1990, MV] DVDRip raw

        (скачиваний: 5)
        Лея Уотерс | Переключение на силу. Как научиться видеть в детях сильные стороны, чтобы помочь им расцвести (2019) [EPUB]

        (скачиваний: 5)