ВАЖНО! Сайт скоро заблокируют! Подписывайся на наш канал в Telegram https://t.me/torrentok и получи доступ к торрентам без ограничений!
.
Авторизация | Регистрация
bitok.xyz
Торрент скачать бесплатно Мультфильмы торрент скачать Stranger Mukoh Hadan | Sword of the Stranger | Меч чужака [2007, Movie] BDRip 1080p raw + rus торрент скачать бесплатно


    Stranger Mukoh Hadan | Sword of the Stranger | Меч чужака [2007, Movie] BDRip 1080p raw + rus торрент скачать бесплатно

    Дата: 23-02-2020, 05:00 | .torrent скачали: 0

    Stranger Mukoh Hadan | Sword of the Stranger | Меч чужака [2007, Movie] BDRip 1080p raw + rusТип: Movie
    Жанр: Самураи, история, боевые искусства
    Продолжительность: 1 ч 43 мин
    Дата выпуска: 2007
    Производство: Япония/Bones
    Автор оригинала: Фумихико Такаяма
    Режиссер: Масахиро Андо
    Ссылки: World-Art

    Описание

    Маленький мальчик, чьим единственным другом остаётся верный пёс, удирает от погони. За ним охотятся люди местного князя, который вступил в сделку с посланцами из Китая. Никто не знает, что нужно странным чужакам, но они платят золотом, поэтому рабочие целыми днями трудятся над постройкой странного сооружения, а воины прочёсывают ближайшие деревни. Между тем их добыча находит себе защитника: странного мужчину со шрамами на лице. Его меч крепко привязан к ножнам, но даже с таким полуоружием незнакомец остаётся опасным противником. Он нанимается проводить мальчика до храма, где беглец ожидает найти убежище, однако эта работа оказывается более важной для телохранителя, чем это казалось поначалу…
    Язык озвучки: Русский
    Профессиональный многоголосый (KANSAI Studio)
    Любительский многоголосый (Shinobi участники: Hattori Hanzo, Lord Alukart, =dmk=, Lunifera)
    Любительский Одноголосый (Юки Нацуи/Animegroup/ARRU)
    Любительский Одноголосый (озвучание - Cuba77/перевод Sauron13)
    Любительский Одноголосый (озвучание - А.Воронов)
    Субтитры: Русские, полные (отключаемые) BakaNyaka
    Качество видео: BDRip
    Видео: x264@L4.1, 1920x1080 (16: 9), 23.976 fps, 6850 kbps, 0.138 bit/pixel, 8 bit
    Аудио: AAC, 192 Kbps, 48.0Hz, 2 ch

    Скриншоты для ознакомления



    Видео
    Идентификатор : 1
    Формат : AVC
    Формат/Информация : Advanced Video Codec
    Профиль формата : High@L4.1
    Настройки формата : CABAC/4 Ref Frames
    Параметр CABAC формата : Да
    Параметр RefFrames формата : 4 кадра
    Идентификатор кодека : V_MPEG4/ISO/AVC
    Продолжительность : 1 ч. 42 м.
    Битрейт : 6850 Кбит/сек
    Ширина : 1920 пикселей
    Высота : 1080 пикселей
    Соотношение сторон : 16: 9
    Режим частоты кадров : Постоянный
    Частота кадров : 23, 976 (24000/1001) кадра/сек
    Цветовое пространство : YUV
    Субдискретизация насыщенности : 4: 2: 0
    Битовая глубина : 8 бит
    Тип развёртки : Прогрессивная
    Бит/(Пиксели*Кадры) : 0.138
    Размер потока : 4, 91 Гбайт (86%)
    Библиотека кодирования : x264 core 152 r2851 ba24899
    Настройки программы : cabac=1/ref=4/deblock=1: 0: 0/analyse=0x3: 0x133/me=umh/subme=10/psy=1/psy_rd=1.00: 0.00/mixed_ref=1/me_range=24/chroma_me=1/trellis=2/8x8dct=1/cqm=0/deadzone=21, 11/fast_pskip=1/chroma_qp_offset=-2/threads=18/lookahead_threads=3/sliced_threads=0/nr=0/decimate=1/interlaced=0/bluray_compat=0/constrained_intra=0/bframes=8/b_pyramid=2/b_adapt=2/b_bias=0/direct=1/weightb=1/open_gop=0/weightp=2/keyint=240/keyint_min=23/scenecut=40/intra_refresh=0/rc_lookahead=60/rc=crf/mbtree=1/crf=18.0/qcomp=0.60/qpmin=0/qpmax=69/qpstep=4/vbv_maxrate=50000/vbv_bufsize=62500/crf_max=0.0/nal_hrd=none/filler=0/ip_ratio=1.40/aq=1: 1.00
    Язык : Japanese
    Default : Да
    Forced : Нет
    Цветовой диапазон : Limited
    Основные цвета : BT.709
    Характеристики трансфера : BT.709
    Коэффициенты матрицы : BT.709
    Аудио #1
    Идентификатор : 2
    Формат : AAC LC
    Формат/Информация : Advanced Audio Codec Low Complexity
    Идентификатор кодека : A_AAC-2
    Продолжительность : 1 ч. 42 м.
    Битрейт : 192 Кбит/сек
    Каналы : 2 канала
    ChannelLayout : L R
    Частота : 48, 0 КГц
    Частота кадров : 46, 875 кадров/сек (1024 SPF)
    Метод сжатия : С потерями
    Задержка видео : 21 мс.
    Размер потока : 141 Мбайт (2%)
    Заголовок : KANSAI Studio
    Язык : Russian
    Default : Да
    Forced : Нет
    Аудио #2
    Идентификатор : 3
    Формат : AAC LC
    Формат/Информация : Advanced Audio Codec Low Complexity
    Идентификатор кодека : A_AAC-2
    Продолжительность : 1 ч. 42 м.
    Битрейт : 192 Кбит/сек
    Каналы : 2 канала
    ChannelLayout : L R
    Частота : 48, 0 КГц
    Частота кадров : 46, 875 кадров/сек (1024 SPF)
    Метод сжатия : С потерями
    Задержка видео : 21 мс.
    Размер потока : 141 Мбайт (2%)
    Заголовок : Shinobi
    Язык : Russian
    Default : Нет
    Forced : Нет
    Аудио #3
    Идентификатор : 4
    Формат : AAC LC
    Формат/Информация : Advanced Audio Codec Low Complexity
    Идентификатор кодека : A_AAC-2
    Продолжительность : 1 ч. 42 м.
    Битрейт : 192 Кбит/сек
    Каналы : 2 канала
    ChannelLayout : L R
    Частота : 48, 0 КГц
    Частота кадров : 46, 875 кадров/сек (1024 SPF)
    Метод сжатия : С потерями
    Задержка видео : 21 мс.
    Размер потока : 141 Мбайт (2%)
    Заголовок : Animegrup
    Язык : Russian
    Default : Нет
    Forced : Нет
    Аудио #4
    Идентификатор : 5
    Формат : AAC LC
    Формат/Информация : Advanced Audio Codec Low Complexity
    Идентификатор кодека : A_AAC-2
    Продолжительность : 1 ч. 42 м.
    Битрейт : 192 Кбит/сек
    Каналы : 2 канала
    ChannelLayout : L R
    Частота : 48, 0 КГц
    Частота кадров : 46, 875 кадров/сек (1024 SPF)
    Метод сжатия : С потерями
    Задержка видео : 21 мс.
    Размер потока : 141 Мбайт (2%)
    Заголовок : Cuba77
    Язык : Russian
    Default : Нет
    Forced : Нет
    Аудио #5
    Идентификатор : 6
    Формат : AAC LC
    Формат/Информация : Advanced Audio Codec Low Complexity
    Идентификатор кодека : A_AAC-2
    Продолжительность : 1 ч. 42 м.
    Битрейт : 192 Кбит/сек
    Каналы : 2 канала
    ChannelLayout : L R
    Частота : 48, 0 КГц
    Частота кадров : 46, 875 кадров/сек (1024 SPF)
    Метод сжатия : С потерями
    Задержка видео : 21 мс.
    Размер потока : 141 Мбайт (2%)
    Заголовок : Voronov
    Язык : Russian
    Default : Нет
    Forced : Нет
    Аудио #6
    Идентификатор : 7
    Формат : AAC LC
    Формат/Информация : Advanced Audio Codec Low Complexity
    Идентификатор кодека : A_AAC-2
    Продолжительность : 1 ч. 42 м.
    Битрейт : 192 Кбит/сек
    Каналы : 2 канала
    ChannelLayout : L R
    Частота : 48, 0 КГц
    Частота кадров : 46, 875 кадров/сек (1024 SPF)
    Метод сжатия : С потерями
    Задержка видео : 21 мс.
    Размер потока : 141 Мбайт (2%)
    Язык : Japanese
    Default : Нет
    Forced : Нет
    Текст
    Идентификатор : 8
    Формат : ASS
    Идентификатор кодека : S_TEXT/ASS
    Идентификатор кодека/Информация : Advanced Sub Station Alpha
    Продолжительность : 1 ч. 37 м.
    Битрейт : 111 бит/сек
    ElementCount : 1020
    Метод сжатия : Без потерь
    Размер потока : 79, 6 Кбайт (0%)
    Заголовок : BakaNyaka
    Язык : Russian
    Default : Нет
    Forced : Нет
    Время раздачи: с 9: 00 до 00: 00 (до появления первых 3-5 скачавших)

    Онлайн видео Stranger Mukoh Hadan


    Stranger Mukoh Hadan | Sword of the Stranger | Меч чужака [2007, Movie] BDRip 1080p raw + rus торрент скачать бесплатно
    Рейтинг →
     (голосов: 1, оценка 4/5, голосовать можно 1 раз )

    Другие торренты по теме:

  • Stranger Mukoh Hadan / Sword of the Stranger / Меч чужака [2007, Movie] BDRip 720p raw


    • Комментарии (0):

      Информация

      Информация

        Посетители, находящиеся в группе Гости, не могут оставлять комментарии в данной новости.

        ↓ Меню




        Популярное

        Роботы-пожарные / Fire Robo (2016) WEB-DLRip [H.264 / 720p-LQ] (сезон 1, серии 1-26 из 26) [Обновляемая]

        (скачиваний: 6)
        Лея Уотерс | Переключение на силу. Как научиться видеть в детях сильные стороны, чтобы помочь им расцвести (2019) [EPUB]

        (скачиваний: 5)
        Жила-была царевна (2015-2019) WEB-DLRip [H.264 / 720p-LQ] (сезон 1, серии 1-18 из 26) [Обновляемая]

        (скачиваний: 5)
        Сергей Матвеев | Полный курс английского языка для лентяев (2016) [PDF]

        (скачиваний: 5)
        Алексей Марков | Хулиганская экономика. Финансовые рынки для хулиганов и их родителей (2019) [EPUB]

        (скачиваний: 4)
        Металионы / Metalions (2018-2019) WEB-DLRip [H.264 / 720p-LQ] (сезон 1, серии 1-52 из 52) [Обновляемая]

        (скачиваний: 4)
        Александр Нилл | Воспитание свободой. Школа Саммерхилл (2020) [EPUB]

        (скачиваний: 4)
        Серия книг | Образовательная манга (2010 - 2015) [PDF]

        (скачиваний: 4)
        Мариэтта Чудакова | Рассказы про Россию. 1861—1922 (2020) [EPUB]

        (скачиваний: 3)
        Gekijouban KanColle | Kantai Collection Movie | Fleet Girls Collection: Movie Sequence| Коллекционная флотилия на большом экране [2016, Movie] BDrip 720p 10bit raw

        (скачиваний: 3)