ВАЖНО! Сайт скоро заблокируют! Подписывайся на наш канал в Telegram https://t.me/torrentok и получи доступ к торрентам без ограничений!
.
Авторизация | Регистрация
bitok.xyz
Торрент скачать бесплатно Мультфильмы торрент скачать Girls und Panzer Gekijouban | Girls und Panzer der Film | Девушки и Танки. Фильм [2015, Movie] BDRip 1080p 10-bit raw+rus торрент скачать бесплатно


    Girls und Panzer Gekijouban | Girls und Panzer der Film | Девушки и Танки. Фильм [2015, Movie] BDRip 1080p 10-bit raw+rus торрент скачать бесплатно

    Дата: 23-02-2020, 05:00 | .torrent скачали: 0

    Girls und Panzer Gekijouban | Girls und Panzer der Film | Девушки и Танки. Фильм [2015, Movie] BDRip 1080p 10-bit raw+rusТип: Movie
    Жанр: Приключения
    Продолжительность: 02: 00: 11
    Дата выпуска: 21.11.2015
    Автор оригинала: Ёсида Рэйко
    Режиссер: Мидзусима Цутому
    Производство: Actas/ Япония

    World-Art |AniDB |MyAnimelist |Shikimori

    Описание

    После 63 турнира Сэнся-до японское Министерство образования решает закрыть женскую академию Оарай, несмотря на их недавний триумф на чемпионате. Чтобы сохранить академию, Михо и её команда должны выиграть состязание против университетской команды в Сэнся-до. В этом нелёгком сражении к Михо спешат на помощью старые друзья из других школ, а также новые — из академии Тихатан и старшей школы Кэйдзоку. Вместе, они объединят усилия, чтобы спасти Оарай.
    Автор: UrAgAnChIk ©Shikimori
    Качество Видео: BDRip
    Видео: AVC/x264 , 1920x1080, 23.976 fps, 8 166 kb/s, 0.164 bpp10-bit
    Язык Озвучки: Японский и Русский
    Озвучка: Одноголосая закадровая
    Аудио №1: AC32.0 , 48.0 kHz, 192 kb/s(Eladiel) |Язык:
    Аудио №2: FLAC2.0 , 48.0 kHz, 1 478 kb/s 24-Bit(Original) |Язык:
    Аудио №3: FLAC5.1 , 48.0 kHz, 3 427 kb/s 24-Bit(Original) |Язык:
    Субтитры: Полные(Elven_tankman Koushin) /(Buka63)

    Скриншоты для ознакомления





    1) Girls und Panzer
    2) Girls und Panzer: Kore ga Hontou no Anzio-sen Desu!
    3) Girls und Panzer Gekijouban(Эта раздача)
    4) Girls und Panzer: Saishuushou Part 1(Только субтитры )
    5) Girls und Panzer: Saishuushou Part 2(Нет субтитров и озвучки )
    6) Girls und Panzer: Saishuushou Part 3(Анонс )
    7) Girls und Panzer: Saishuushou Part 4(Анонс )
    8) Girls und Panzer: Saishuushou Part 5(Анонс )
    9) Girls und Panzer: Saishuushou Part 6(Анонс )


    General
    Unique ID : 255407315031698982927729313794336128260 (0xC025A8DBC68CE0AF502B68F3180E7D04)
    Complete name : J: АнимеДевушки и Танки (Girls und Panzer) BDRip (2012-2015)14 (Movie). Gekijouban (Фильм).mkv
    Format : Matroska
    Format version : Version 4
    File size : 11.1 GiB
    Duration : 2 h 0 min
    Overall bit rate mode : Variable
    Overall bit rate : 13.3 Mb/s
    Encoded date : UTC 2019-05-12 08: 50: 35
    Writing application : mkvmerge v32.0.0 (\'Astral Progressions\') 64-bit
    Writing library : libebml v1.3.7 + libmatroska v1.5.0
    Video
    ID : 1
    Format : AVC
    Format/Info : Advanced Video Codec
    Format profile : High 10@L5
    Format settings : CABAC/4 Ref Frames
    Format settings, CABAC : Yes
    Format settings, Reference : 4 frames
    Codec ID : V_MPEG4/ISO/AVC
    Duration : 2 h 0 min
    Bit rate : 8 166 kb/s
    Width : 1 920 pixels
    Height : 1 080 pixels
    Display aspect ratio : 16: 9
    Frame rate mode : Constant
    Frame rate : 23.976 (24000/1001) FPS
    Color space : YUV
    Chroma subsampling : 4: 2: 0
    Bit depth : 10 bits
    Scan type : Progressive
    Bits/(Pixel*Frame) : 0.164
    Stream size : 6.86 GiB (62%)
    Writing library : x264 core 148 (DJATOM\'s build)
    Encoding settings : cabac=1/ref=4/deblock=1: 1: -1/analyse=0x3: 0x133/me=umh/subme=9/psy=1/fade_compensate=0.00/psy_rd=1.00: 0.00/mixed_ref=1/me_range=32/chroma_me=1/trellis=2/8x8dct=1/cqm=0/deadzone=21, 11/fast_pskip=1/chroma_qp_offset=-2/threads=6/lookahead_threads=1/sliced_threads=0/nr=0/decimate=1/interlaced=0/bluray_compat=0/constrained_intra=0/bframes=9/b_pyramid=2/b_adapt=2/b_bias=0/direct=1/weightb=1/open_gop=0/weightp=2/keyint=250/keyint_min=23/scenecut=40/intra_refresh=0/rc=crf/mbtree=0/crf=15.0000/qcomp=0.72/qpmin=0/qpmax=81/qpstep=4/ip_ratio=1.40/pb_ratio=1.30/aq=1: 0.85
    Language : Japanese
    Default : Yes
    Forced : No
    Color range : Limited
    Color primaries : BT.709
    Transfer characteristics : BT.709
    Matrix coefficients : BT.709
    Audio #1
    ID : 2
    Format : AC-3
    Format/Info : Audio Coding 3
    Commercial name : Dolby Digital
    Codec ID : A_AC3
    Duration : 2 h 0 min
    Bit rate mode : Constant
    Bit rate : 192 kb/s
    Channel(s) : 2 channels
    Channel layout : L R
    Sampling rate : 48.0 kHz
    Frame rate : 31.250 FPS (1536 SPF)
    Compression mode : Lossy
    Stream size : 165 MiB (1%)
    Title : Eladiel
    Language : Russian
    Service kind : Complete Main
    Default : Yes
    Forced : No
    Audio #2
    ID : 3
    Format : FLAC
    Format/Info : Free Lossless Audio Codec
    Codec ID : A_FLAC
    Duration : 2 h 0 min
    Bit rate mode : Variable
    Bit rate : 1 478 kb/s
    Channel(s) : 2 channels
    Channel layout : L R
    Sampling rate : 48.0 kHz
    Frame rate : 11.719 FPS (4096 SPF)
    Bit depth : 24 bits
    Compression mode : Lossless
    Stream size : 1.24 GiB (11%)
    Title : Original
    Writing library : libFLAC 1.3.1 (UTC 2014-11-25)
    Language : Japanese
    Default : No
    Forced : No
    Audio #3
    ID : 4
    Format : FLAC
    Format/Info : Free Lossless Audio Codec
    Codec ID : A_FLAC
    Duration : 2 h 0 min
    Bit rate mode : Variable
    Bit rate : 3 427 kb/s
    Channel(s) : 6 channels
    Channel layout : L R C LFE Ls Rs
    Sampling rate : 48.0 kHz
    Frame rate : 11.719 FPS (4096 SPF)
    Bit depth : 24 bits
    Compression mode : Lossless
    Stream size : 2.88 GiB (26%)
    Title : Original (DTS-HD MA 5.1)
    Writing library : libFLAC 1.3.1 (UTC 2014-11-25)
    Language : Japanese
    Default : No
    Forced : No
    Text #1
    ID : 5
    Format : ASS
    Codec ID : S_TEXT/ASS
    Codec ID/Info : Advanced Sub Station Alpha
    Duration : 1 h 55 min
    Bit rate : 141 b/s
    Count of elements : 1926
    Compression mode : Lossless
    Stream size : 120 KiB (0%)
    Title : Full (Elven_tankman Koushin)
    Language : Russian
    Default : Yes
    Forced : No
    Text #2
    ID : 6
    Format : ASS
    Codec ID : S_TEXT/ASS
    Codec ID/Info : Advanced Sub Station Alpha
    Duration : 1 h 59 min
    Bit rate : 287 b/s
    Count of elements : 2765
    Compression mode : Lossless
    Stream size : 252 KiB (0%)
    Title : Full (Buka63)
    Language : Russian
    Default : No
    Forced : No
    Menu
    00: 00: 00.000 : : Avant
    00: 03: 14.152 : : OP
    00: 10: 22.705 : : Part A
    00: 26: 13.863 : : Part B
    00: 36: 40.364 : : Part C
    00: 44: 09.188 : : Part D
    00: 48: 21.607 : : Part E
    00: 53: 50.518 : : Part F
    00: 59: 44.080 : : Part G
    01: 05: 11.782 : : Part H
    01: 12: 44.485 : : Part I
    01: 14: 15.659 : : Part J
    01: 18: 29.788 : : Part K
    01: 19: 50.202 : : Part L
    01: 25: 50.770 : : Part M
    01: 31: 26.731 : : Part N
    01: 35: 10.955 : : Part O
    01: 38: 15.472 : : Part P
    01: 42: 03.200 : : Part Q
    01: 44: 13.622 : : Part R
    01: 48: 22.245 : : Part S
    01: 55: 46.189 : : ED
    02: 00: 11.204 : : Fin

    Время раздачи: С 8: 00 по 18: 00 МСК (до появления первых 3-5 скачавших)
    Понравился релиз? Ставь Оценку и нажми Спасибо
    Это серьёзно меня мотивирует делать подобные релизы.
    Если всем сердцем любишь аниме - подключайся и оставайся на раздаче максимально долго!
    За ретайминг звука и субтитров огромное спасибо DS2902
    Полный список ретаймов


    Онлайн видео Girls und Panzer Gekijouban


    Girls und Panzer Gekijouban | Girls und Panzer der Film | Девушки и Танки. Фильм [2015, Movie] BDRip 1080p 10-bit raw+rus торрент скачать бесплатно
    Рейтинг →
     (голосов: 1, оценка 3/5, голосовать можно 1 раз )

    Другие торренты по теме:

  • Девушки и танки (фильм) | Girls und Panzer Gekijouban | Girls und Panzer der Film [2015, Movie] BDrip 1080p Hi10P raw
  • Girls und Panzer: Saishuushou | Girls und Panzer das Final | Девушки и танки: Финал [2017, Movie, 1 из 6 эп.] BDrip 1080p raw
  • Girls und Panzer | Girls & Panzer | Девушки и Танки [2012, TV, 12 ep + 5 OVA + 6 Specials] BDRip 1080p 10-bit raw+rus
  • Girls und Panzer: Kore ga Hontou no Anzio-sen Desu! | Девочки и Танки OVA [2014, OVA, 1 эп. + 1 SP] BDrip 1080p raw
  • Girls und Panzer: Kore ga Hontou no Anzio-sen Desu! | Девушки и Танки: Настоящая Битва за Анцио! [2014, OVA] BDRip 1080p raw+rus


    • Комментарии (0):

      Информация

      Информация

        Посетители, находящиеся в группе Гости, не могут оставлять комментарии в данной новости.

        ↓ Меню




        Популярное

        Роботы-пожарные / Fire Robo (2016) WEB-DLRip [H.264 / 720p-LQ] (сезон 1, серии 1-26 из 26) [Обновляемая]

        (скачиваний: 6)
        Сергей Матвеев | Полный курс английского языка для лентяев (2016) [PDF]

        (скачиваний: 5)
        Серия книг | Образовательная манга (2010 - 2015) [PDF]

        (скачиваний: 4)
        Мариэтта Чудакова | Рассказы про Россию. 1861—1922 (2020) [EPUB]

        (скачиваний: 3)
        Алексей Марков | Хулиганская экономика. Финансовые рынки для хулиганов и их родителей (2019) [EPUB]

        (скачиваний: 3)
        Ляля Кандаурова | Как слушать музыку (2020) [EPUB]

        (скачиваний: 3)
        Александр Нилл | Воспитание свободой. Школа Саммерхилл (2020) [EPUB]

        (скачиваний: 3)
        Алена Зюрикова | Дзен в декрете, или Как не сойти с ума от счастья. Режим, сон, воспитание и хорошее настроение (2020) [EPUB]

        (скачиваний: 3)
        Жила-была царевна (2015-2019) WEB-DLRip [H.264 / 720p-LQ] (сезон 1, серии 1-18 из 26) [Обновляемая]

        (скачиваний: 3)
        Gekijouban KanColle | Kantai Collection Movie | Fleet Girls Collection: Movie Sequence| Коллекционная флотилия на большом экране [2016, Movie] BDrip 720p 10bit raw

        (скачиваний: 3)