ВАЖНО! Сайт скоро заблокируют! Подписывайся на наш канал в Telegram https://t.me/torrentok и получи доступ к торрентам без ограничений!
.
Авторизация | Регистрация
bitok.xyz
Торрент скачать бесплатно Мультфильмы торрент скачать Girls und Panzer: Kore ga Hontou no Anzio-sen Desu! | Девушки и Танки: Настоящая Битва за Анцио! [2014, OVA] BDRip 1080p raw+rus торрент скачать бесплатно


    Girls und Panzer: Kore ga Hontou no Anzio-sen Desu! | Девушки и Танки: Настоящая Битва за Анцио! [2014, OVA] BDRip 1080p raw+rus торрент скачать бесплатно

    Дата: 23-02-2020, 05:00 | .torrent скачали: 0

    Girls und Panzer: Kore ga Hontou no Anzio-sen Desu! | Девушки и Танки: Настоящая Битва за Анцио! [2014, OVA] BDRip 1080p raw+rusТип: OVA
    Жанр: Приключения
    Продолжительность: 37: 28
    Дата выпуска: 05.07.2014
    Автор оригинала: Ёсида Рэйко
    Режиссер: Мидзусима Цутому
    Производство: Actas/ Япония

    World-Art |AniDB |MyAnimelist |Shikimori

    Описание

    OVA, сюжет которой рассказывает о битве против старшей школы Анцио. Хронологически, это 8-ой эпизодTV-сериала.
    Автор: SeroS ©Shikimori
    Качество Видео: BDRip
    Видео: AVC/x264 , 1920x1080, 23.976 fps, 9 501 kb/s, 0.191 bpp8-bit
    Язык Озвучки: Японский и Русский
    Озвучка: Одноголосая закадровая
    Аудио №1: AC32.0 , 48.0 kHz, 192 kb/s(Eladiel) |Язык:
    Аудио №2: FLAC2.0 , 48.0 kHz, 1 591 kb/s 24-Bit(Original) |Язык:
    Аудио №3: FLAC5.1 , 48.0 kHz, 3 461 kb/s 24-Bit(Original) |Язык:
    Субтитры: Полные(Uncle_Ho) /(Buka63)

    Скриншоты для ознакомления





    1) Girls und Panzer
    2) Girls und Panzer: Kore ga Hontou no Anzio-sen Desu!(Эта раздача)
    3) Girls und Panzer Gekijouban
    4) Girls und Panzer: Saishuushou Part 1(Только субтитры )
    5) Girls und Panzer: Saishuushou Part 2(Нет субтитров и озвучки )
    6) Girls und Panzer: Saishuushou Part 3(Анонс )
    7) Girls und Panzer: Saishuushou Part 4(Анонс )
    8) Girls und Panzer: Saishuushou Part 5(Анонс )
    9) Girls und Panzer: Saishuushou Part 6(Анонс )
    Все серии пронумерованы для удобства просмотра в хронологическом порядке. Можно всё закинуть в одну папку и наслаждаться непрерывным просмотром.


    General
    Unique ID : 245669910600538091975019303164697761428 (0xB8D24DC0FD90A559576443F68595D694)
    Complete name : J: АнимеДевушки и Танки (Girls und Panzer) BDRip (2012-2015)8 (OVA). Kore ga Hontou no Anzio-sen Desu! (Настоящая битва за Анцио!).mkv
    Format : Matroska
    Format version : Version 4
    File size : 3.87 GiB
    Duration : 37 min 28 s
    Overall bit rate mode : Variable
    Overall bit rate : 14.8 Mb/s
    Encoded date : UTC 2020-02-17 09: 30: 42
    Writing application : mkvmerge v43.0.0 (\'The Quartermaster\') 64-bit
    Writing library : libebml v1.3.10 + libmatroska v1.5.2
    Attachments : Brush Strokes_0.ttf/BRUSHED.TTF/CarrefourSans-Bold.otf/CATHSGBR.TTF/Clannad_Round_Regular.ttf/coolvetica rg.ttf/Dan_Hand.ttf/DINPro-Medium.otf/DShirgy4.ttc/flickneb.ttf/Latienne_Becker_Med.ttf/Latienne_Becker_Med_Italic.ttf/LEHN095.TTF/MrBubbleFont.ttf/SketchedCassiusBroken.ttf/637_0e2d4b16-6374-418b-a9bf-13527ea6414d.ttf.ttf/arial_E.ttf
    Video
    ID : 1
    Format : AVC
    Format/Info : Advanced Video Codec
    Format profile : High@L4
    Format settings : CABAC/4 Ref Frames
    Format settings, CABAC : Yes
    Format settings, Reference : 4 frames
    Codec ID : V_MPEG4/ISO/AVC
    Duration : 37 min 28 s
    Bit rate : 9 501 kb/s
    Width : 1 920 pixels
    Height : 1 080 pixels
    Display aspect ratio : 16: 9
    Frame rate mode : Constant
    Frame rate : 23.976 (24000/1001) FPS
    Color space : YUV
    Chroma subsampling : 4: 2: 0
    Bit depth : 8 bits
    Scan type : Progressive
    Bits/(Pixel*Frame) : 0.191
    Stream size : 2.49 GiB (64%)
    Writing library : x264 core 142
    Encoding settings : opencl=1/cabac=1/ref=4/deblock=1: -2: -2/analyse=0x3: 0x113/me=umh/subme=9/psy=1/psy_rd=0.70: 0.00/mixed_ref=0/me_range=32/chroma_me=1/trellis=2/8x8dct=1/cqm=0/deadzone=21, 11/fast_pskip=1/chroma_qp_offset=-2/threads=8/lookahead_threads=1/sliced_threads=0/nr=0/decimate=1/interlaced=0/bluray_compat=0/constrained_intra=0/bframes=9/b_pyramid=2/b_adapt=2/b_bias=0/direct=3/weightb=1/open_gop=0/weightp=2/keyint=250/keyint_min=23/scenecut=40/intra_refresh=0/rc_lookahead=40/rc=crf/mbtree=1/crf=16.0/qcomp=0.70/qpmin=10/qpmax=20/qpstep=4/ip_ratio=1.40/aq=1: 1.00
    Language : Japanese
    Default : Yes
    Forced : No
    Audio #1
    ID : 2
    Format : AC-3
    Format/Info : Audio Coding 3
    Commercial name : Dolby Digital
    Codec ID : A_AC3
    Duration : 37 min 23 s
    Bit rate mode : Constant
    Bit rate : 192 kb/s
    Channel(s) : 2 channels
    Channel layout : L R
    Sampling rate : 48.0 kHz
    Frame rate : 31.250 FPS (1536 SPF)
    Compression mode : Lossy
    Stream size : 51.3 MiB (1%)
    Title : Eladiel
    Language : Russian
    Service kind : Complete Main
    Default : Yes
    Forced : No
    Audio #2
    ID : 3
    Format : FLAC
    Format/Info : Free Lossless Audio Codec
    Codec ID : A_FLAC
    Duration : 37 min 28 s
    Bit rate mode : Variable
    Bit rate : 1 591 kb/s
    Channel(s) : 2 channels
    Channel layout : L R
    Sampling rate : 48.0 kHz
    Frame rate : 10.417 FPS (4608 SPF)
    Bit depth : 24 bits
    Compression mode : Lossless
    Stream size : 426 MiB (11%)
    Title : Original 2.0
    Writing library : Lavf54.63.104
    Language : Japanese
    Default : No
    Forced : No
    Audio #3
    ID : 4
    Format : FLAC
    Format/Info : Free Lossless Audio Codec
    Codec ID : A_FLAC
    Duration : 37 min 28 s
    Bit rate mode : Variable
    Bit rate : 3 461 kb/s
    Channel(s) : 6 channels
    Channel layout : L R C LFE Ls Rs
    Sampling rate : 48.0 kHz
    Frame rate : 10.417 FPS (4608 SPF)
    Bit depth : 24 bits
    Compression mode : Lossless
    Stream size : 928 MiB (23%)
    Title : Original 5.1
    Writing library : Lavf54.63.104
    Language : Japanese
    Default : No
    Forced : No
    Text #1
    ID : 5
    Format : ASS
    Codec ID : S_TEXT/ASS
    Codec ID/Info : Advanced Sub Station Alpha
    Duration : 37 min 17 s
    Bit rate : 186 b/s
    Count of elements : 677
    Compression mode : Lossless
    Stream size : 51.0 KiB (0%)
    Title : Full (Uncle_Ho)
    Language : Russian
    Default : No
    Forced : No
    Text #2
    ID : 6
    Format : ASS
    Codec ID : S_TEXT/ASS
    Codec ID/Info : Advanced Sub Station Alpha
    Duration : 37 min 21 s
    Bit rate : 176 b/s
    Count of elements : 712
    Compression mode : Lossless
    Stream size : 48.2 KiB (0%)
    Title : Full (Buka63)
    Language : Russian
    Default : No
    Forced : No
    Menu
    00: 00: 00.033 : en: Intro
    00: 02: 05.600 : en: OP
    00: 03: 35.610 : en: Episode
    00: 34: 40.090 : en: ED
    00: 36: 10.060 : en: Outro

    Время раздачи: С 8: 00 по 18: 00 МСК (до появления первых 3-5 скачавших)
    Понравился релиз? Ставь Оценку и нажми Спасибо
    Это серьёзно меня мотивирует делать подобные релизы.
    Если всем сердцем любишь аниме - подключайся и оставайся на раздаче максимально долго!
    За ретайминг звука и субтитров огромное спасибо DS2902
    Полный список ретаймов


    Онлайн видео Girls und Panzer: Kore ga Hontou no Anzio-sen Desu!


    Girls und Panzer: Kore ga Hontou no Anzio-sen Desu! | Девушки и Танки: Настоящая Битва за Анцио! [2014, OVA] BDRip 1080p raw+rus торрент скачать бесплатно
    Рейтинг →
     (голосов: 1, оценка 5/5, голосовать можно 1 раз )

    Другие торренты по теме:

  • Девушки и танки (фильм) | Girls und Panzer Gekijouban | Girls und Panzer der Film [2015, Movie] BDrip 1080p Hi10P raw
  • Girls und Panzer: Saishuushou | Girls und Panzer das Final | Девушки и танки: Финал [2017, Movie, 1 из 6 эп.] BDrip 1080p raw
  • Girls und Panzer Gekijouban | Girls und Panzer der Film | Девушки и Танки. Фильм [2015, Movie] BDRip 1080p 10-bit raw+rus
  • Girls und Panzer | Girls & Panzer | Девушки и Танки [2012, TV, 12 ep + 5 OVA + 6 Specials] BDRip 1080p 10-bit raw+rus
  • Girls und Panzer: Kore ga Hontou no Anzio-sen Desu! | Девочки и Танки OVA [2014, OVA, 1 эп. + 1 SP] BDrip 1080p raw


    • Комментарии (0):

      Информация

      Информация

        Посетители, находящиеся в группе Гости, не могут оставлять комментарии в данной новости.

        ↓ Меню




        Популярное

        Роботы-пожарные / Fire Robo (2016) WEB-DLRip [H.264 / 720p-LQ] (сезон 1, серии 1-26 из 26) [Обновляемая]

        (скачиваний: 6)
        Сергей Матвеев | Полный курс английского языка для лентяев (2016) [PDF]

        (скачиваний: 5)
        Серия книг | Образовательная манга (2010 - 2015) [PDF]

        (скачиваний: 4)
        Мариэтта Чудакова | Рассказы про Россию. 1861—1922 (2020) [EPUB]

        (скачиваний: 3)
        Алексей Марков | Хулиганская экономика. Финансовые рынки для хулиганов и их родителей (2019) [EPUB]

        (скачиваний: 3)
        Ляля Кандаурова | Как слушать музыку (2020) [EPUB]

        (скачиваний: 3)
        Александр Нилл | Воспитание свободой. Школа Саммерхилл (2020) [EPUB]

        (скачиваний: 3)
        Алена Зюрикова | Дзен в декрете, или Как не сойти с ума от счастья. Режим, сон, воспитание и хорошее настроение (2020) [EPUB]

        (скачиваний: 3)
        Жила-была царевна (2015-2019) WEB-DLRip [H.264 / 720p-LQ] (сезон 1, серии 1-18 из 26) [Обновляемая]

        (скачиваний: 3)
        Gekijouban KanColle | Kantai Collection Movie | Fleet Girls Collection: Movie Sequence| Коллекционная флотилия на большом экране [2016, Movie] BDrip 720p 10bit raw

        (скачиваний: 3)