Подписывайся на наш канал в Telegram https://t.me/torrentok и получи доступ к торрентам без ограничений!
.
Авторизация | Регистрация
bitok.xyz
Торрент скачать бесплатно Мультфильмы торрент скачать Girls und Panzer | Girls & Panzer | Девушки и Танки [2012, TV, 12 ep + 5 OVA + 6 Specials] BDRip 1080p 10-bit raw+rus торрент скачать бесплатно


    Girls und Panzer | Girls & Panzer | Девушки и Танки [2012, TV, 12 ep + 5 OVA + 6 Specials] BDRip 1080p 10-bit raw+rus торрент скачать бесплатно

    Дата: 23-02-2020, 05:00 | .torrent скачали: 1

    Girls und Panzer | Girls & Panzer | Девушки и Танки [2012, TV, 12 ep + 5 OVA + 6 Specials] BDRip 1080p 10-bit raw+rusТип: TV
    Жанр: Приключения
    Продолжительность: 12 Эпизодов по 24 Мин
    Количество серий: 23 Эпизода
    Дата выпуска: c09.10.2012 по23.03.2013
    Автор оригинала: Ёсида Рэйко
    Режиссер: Мидзусима Цутому
    Производство: Actas/ Япония

    World-Art |AniDB |MyAnimelist |Shikimori

    Описание

    Семья Михо Нисидзуми много поколений пилотирует танки, а вот самой ей это не особо нравится. Именно поэтому Михо пошла учиться в Академию Оарай, где не было подобных занятий. Но теперь всё изменилось, и студсовет принуждает нашу малышку вступить на танковый факультатив, чтобы Оарай могли участвовать в ежегодном турнире Сэнся-до. А ведь у неё только наконец появились подруги! Но они-то не против, даже наоборот.
    С этого момента Михо будет в команде, в которой вместе собрались и безумная водила Мако, и взрывная артиллеристка Хана, и увлечённая радио-оператор Саори, а также замечательная помощница и фанатка танков Юкари.
    Возможно, они лишь на полпути к своей удаче, и в итоге кто-то скорее сдастся, чем пойдёт до конца. Но когда цель на мушке, а орудия заряжены, эта команда без сомнений готова стрелять до победы!
    Автор: acid_emily ©Shikimori
    Качество Видео: BDRip
    Видео: AVC/x264 , 1920x1080, 23.976 fps, 6 397 kb/s, 0.129 bpp10-bit
    Язык Озвучки: Японский и Русский
    Озвучка: Одноголосая, Двухголосая закадровая
    TV
    Аудио №1: AC32.0 , 48.0 kHz, 192 kb/s(AniDub) |Язык:
    Аудио №2: AC32.0 , 48.0 kHz, 192 kb/s(Eladiel) |Язык:
    Аудио №3: FLAC2.0 , 48.0 kHz, 1 393 kb/s 24-Bit(Original) |Язык:
    Special 12
    Аудио №1: AC32.0 , 48.0 kHz, 93.4 kb/s(Eladiel) |Язык:
    Аудио №2: FLAC2.0 , 48.0 kHz, 1 437 kb/s 24-Bit(Original) |Язык:
    OVA 1-5; Special 3-6
    Аудио №1: FLAC2.0 , 48.0 kHz, ~1 400 kb/s 24-Bit(Original) |Язык:
    * Только субтитры
    Субтитры: Надписи/Полные(Uncle_Ho) /Elven_tankman Koushin

    Скриншоты для ознакомления





    TV
    01. Tankery, Here it Comes! (Я буду командовать танком!)
    02. Tanks, We Ride Them! (Я буду ездить на танке!)
    03. We re Having a Match! (Я буду участвовать в соревновании!)
    04. Captain Does Her Best! (Я постараюсь быть командиром!)
    05. Veterans of Their Trade Sherman Corps! (Ветераны на Шерманах!)
    06. Our First Battle Comes to a Climax! (Кульминация первого боя!)
    07. Up Next Is Anzio! (Анцио следующие!)
    08. We re Fighting Pravda! (Против Правды!)
    09. Last Ditch Effort! (Безвыходное положение!)
    10. Classmates! (Наша одноклассница!)
    11. The Battle Gets Fierce! (Яростная битва!)
    12. The Battle We Can`t Back Down From! (Не отступать!)
    Specials
    01. Introductions! 1 (Знакомство!)
    02. Introductions! 2 (Знакомство 2!)
    03. Война за Арису!
    04. Akiyama Yukari no Sensha Kouza. Part 1 (Изучаем танки с Акиямой Юкари)
    05. Akiyama Yukari no Sensha Kouza. Part 2 (Изучаем танки с Акиямой Юкари)
    06. Akiyama Yukari no Sensha Kouza. Part 3 (Изучаем танки с Акиямой Юкари)
    OVA
    01. Water War (Водная война!)
    02. Survival War! (Бой на выживание!)
    03. School Ship War! (Прогулка по школоносцу!)
    04. Anglerfish War! (Война рыбы-удильщика!)
    05. Snow War (Снежная война!)

    1) Girls und Panzer(Эта раздача)
    2) Girls und Panzer: Kore ga Hontou no Anzio-sen Desu!
    3) Girls und Panzer Gekijouban
    4) Girls und Panzer: Saishuushou Part 1(Только субтитры )
    5) Girls und Panzer: Saishuushou Part 2(Нет субтитров и озвучки )
    6) Girls und Panzer: Saishuushou Part 3(Анонс )
    7) Girls und Panzer: Saishuushou Part 4(Анонс )
    8) Girls und Panzer: Saishuushou Part 5(Анонс )
    9) Girls und Panzer: Saishuushou Part 6(Анонс )
    Все серии пронумерованы для удобства просмотра в хронологическом порядке. Можно всё закинуть в одну папку и наслаждаться непрерывным просмотром. Файлы из папок OVA и Specials можно перекинуть к основной массе. Они так-же пронумерованы.


    General
    Unique ID : 242151129745106078625203932717732993076 (0xB62C9C76938486C059C0815380721834)
    Complete name : J: АнимеДевушки и Танки (Girls und Panzer) BDRip (2012-2015)1 (TV). Tankery, Here it Comes! (Я буду командовать танком!).mkv
    Format : Matroska
    Format version : Version 4
    File size : 1.39 GiB
    Duration : 24 min 11 s
    Overall bit rate mode : Variable
    Overall bit rate : 8 199 kb/s
    Encoded date : UTC 2019-07-11 09: 11: 52
    Writing application : mkvmerge v35.0.0 (\'All The Love In The World\') 64-bit
    Writing library : libebml v1.3.9 + libmatroska v1.5.2
    Attachments : comicbd.ttf/DINPro-Bold.ttf/GARA.TTF/HammerSickle.ttf/Izhitsa.ttf/MTCORSVA.TTF/MyriadPro-Bold.otf/MyriadPro-BoldCond.otf/MyriadPro-BoldCondIt.otf/MyriadPro-BoldIt.otf/MyriadPro-Cond.otf/MyriadPro-CondIt.otf/MyriadPro-It.otf/MyriadPro-Regular.otf/MyriadPro-Semibold.otf/MyriadPro-SemiboldIt.otf/trebuc.ttf/trebucbd.ttf/trebucbi.ttf/trebucit.ttf/a_StamperRgBt.ttf/Arbat.ttf/bkant.TTF/BOOKOS.TTF/calibri.ttf/comic.ttf
    Video
    ID : 1
    Format : AVC
    Format/Info : Advanced Video Codec
    Format profile : High10@L4.1
    Format settings : CABAC/4 Ref Frames
    Format settings, CABAC : Yes
    Format settings, Reference : 4 frames
    Codec ID : V_MPEG4/ISO/AVC
    Duration : 24 min 11 s
    Bit rate : 6 397 kb/s
    Width : 1 920 pixels
    Height : 1 080 pixels
    Display aspect ratio : 16: 9
    Frame rate mode : Constant
    Frame rate : 23.976 (24000/1001) FPS
    Color space : YUV
    Chroma subsampling : 4: 2: 0
    Bit depth : 10 bits
    Scan type : Progressive
    Bits/(Pixel*Frame) : 0.129
    Stream size : 1.08 GiB (78%)
    Writing library : x264 core 128 r2216 198a7ea
    Encoding settings : cabac=1/ref=4/deblock=1: -2: -2/analyse=0x3: 0x133/me=umh/subme=9/psy=1/psy_rd=1.00: 0.00/mixed_ref=1/me_range=24/chroma_me=1/trellis=2/8x8dct=1/cqm=0/deadzone=21, 11/fast_pskip=1/chroma_qp_offset=-2/threads=12/lookahead_threads=2/sliced_threads=0/nr=0/decimate=0/interlaced=0/bluray_compat=0/constrained_intra=0/bframes=8/b_pyramid=2/b_adapt=2/b_bias=0/direct=3/weightb=1/open_gop=0/weightp=2/keyint=250/keyint_min=23/scenecut=40/intra_refresh=0/rc=crf/mbtree=0/crf=16.0/qcomp=0.70/qpmin=0/qpmax=60/qpstep=4/ip_ratio=1.40/pb_ratio=1.30/aq=1: 0.90
    Language : Japanese
    Default : Yes
    Forced : No
    Audio #1
    ID : 2
    Format : AC-3
    Format/Info : Audio Coding 3
    Commercial name : Dolby Digital
    Codec ID : A_AC3
    Duration : 24 min 11 s
    Bit rate mode : Constant
    Bit rate : 192 kb/s
    Channel(s) : 2 channels
    Channel layout : L R
    Sampling rate : 48.0 kHz
    Frame rate : 31.250 FPS (1536 SPF)
    Compression mode : Lossy
    Stream size : 33.2 MiB (2%)
    Title : Shina Tinko (Anidub)
    Language : Russian
    Service kind : Complete Main
    Default : Yes
    Forced : No
    Audio #2
    ID : 3
    Format : AC-3
    Format/Info : Audio Coding 3
    Commercial name : Dolby Digital
    Codec ID : A_AC3
    Duration : 24 min 11 s
    Bit rate mode : Constant
    Bit rate : 192 kb/s
    Channel(s) : 2 channels
    Channel layout : L R
    Sampling rate : 48.0 kHz
    Frame rate : 31.250 FPS (1536 SPF)
    Compression mode : Lossy
    Stream size : 33.2 MiB (2%)
    Title : Eladiel
    Language : Russian
    Service kind : Complete Main
    Default : No
    Forced : No
    Audio #3
    ID : 4
    Format : FLAC
    Format/Info : Free Lossless Audio Codec
    Codec ID : A_FLAC
    Duration : 24 min 11 s
    Bit rate mode : Variable
    Bit rate : 1 393 kb/s
    Channel(s) : 2 channels
    Channel layout : L R
    Sampling rate : 48.0 kHz
    Frame rate : 11.719 FPS (4096 SPF)
    Bit depth : 24 bits
    Compression mode : Lossless
    Stream size : 241 MiB (17%)
    Title : Original
    Writing library : libFLAC 1.2.1 (UTC 2007-09-17)
    Language : Japanese
    Default : No
    Forced : No
    Text #1
    ID : 5
    Format : ASS
    Codec ID : S_TEXT/ASS
    Codec ID/Info : Advanced Sub Station Alpha
    Duration : 19 min 45 s
    Bit rate : 199 b/s
    Count of elements : 206
    Compression mode : Lossless
    Stream size : 28.9 KiB (0%)
    Title : Forced (Uncle_Ho)
    Language : Russian
    Default : Yes
    Forced : No
    Text #2
    ID : 6
    Format : ASS
    Codec ID : S_TEXT/ASS
    Codec ID/Info : Advanced Sub Station Alpha
    Duration : 24 min 8 s
    Bit rate : 322 b/s
    Count of elements : 545
    Compression mode : Lossless
    Stream size : 57.0 KiB (0%)
    Title : Full (Uncle_Ho)
    Language : Russian
    Default : No
    Forced : No
    Menu
    00: 00: 00.000 : : Prologue
    00: 03: 42.013 : : Part A
    00: 13: 34.021 : : Part B
    00: 22: 35.020 : : ED
    00: 24: 04.985 : : Preview



    General
    Unique ID : 127894508722224113935094308049785471547 (0x6037961EC649E22373D4F991C1C8423B)
    Complete name : J: АнимеДевушки и Танки (Girls und Panzer) BDRip (2012-2015)OVA16 (OVA-1). Water War (Водная война!).mkv
    Format : Matroska
    Format version : Version 4
    File size : 2.49 GiB
    Duration : 9 min 56 s
    Overall bit rate mode : Variable
    Overall bit rate : 35.9 Mb/s
    Encoded date : UTC 2019-07-11 09: 31: 14
    Writing application : mkvmerge v35.0.0 (\'All The Love In The World\') 64-bit
    Writing library : libebml v1.3.9 + libmatroska v1.5.2
    Video
    ID : 1
    Format : AVC
    Format/Info : Advanced Video Codec
    Format profile : High@L4.1
    Format settings : CABAC/4 Ref Frames
    Format settings, CABAC : Yes
    Format settings, Reference : 4 frames
    Codec ID : V_MPEG4/ISO/AVC
    Duration : 9 min 56 s
    Bit rate mode : Variable
    Bit rate : 34.4 Mb/s
    Maximum bit rate : 39.0 Mb/s
    Width : 1 920 pixels
    Height : 1 080 pixels
    Display aspect ratio : 16: 9
    Frame rate mode : Constant
    Frame rate : 23.976 (24000/1001) FPS
    Color space : YUV
    Chroma subsampling : 4: 2: 0
    Bit depth : 8 bits
    Scan type : Progressive
    Bits/(Pixel*Frame) : 0.691
    Stream size : 2.39 GiB (96%)
    Language : Japanese
    Default : No
    Forced : No
    Audio
    ID : 2
    Format : FLAC
    Format/Info : Free Lossless Audio Codec
    Codec ID : A_FLAC
    Duration : 9 min 56 s
    Bit rate mode : Variable
    Bit rate : 1 517 kb/s
    Channel(s) : 2 channels
    Channel layout : L R
    Sampling rate : 48.0 kHz
    Frame rate : 11.719 FPS (4096 SPF)
    Bit depth : 24 bits
    Compression mode : Lossless
    Stream size : 108 MiB (4%)
    Title : Original
    Writing library : libFLAC 1.2.1 (UTC 2007-09-17)
    Language : Japanese
    Default : Yes
    Forced : No
    Text
    ID : 3
    Format : ASS
    Codec ID : S_TEXT/ASS
    Codec ID/Info : Advanced Sub Station Alpha
    Duration : 9 min 53 s
    Bit rate : 539 b/s
    Count of elements : 444
    Compression mode : Lossless
    Stream size : 39.1 KiB (0%)
    Title : Full
    Language : Russian
    Default : Yes
    Forced : No
    Menu
    00: 00: 00.000 : en: 00: 00: 00.000
    00: 01: 31.091 : en: 00: 01: 31.091
    00: 08: 25.505 : en: 00: 08: 25.505
    00: 09: 56.596 : en: 00: 09: 56.596



    General
    Unique ID : 272362892512441687209881571989968417130 (0xCCE72F5EF9C3F319825AB03F4B04716A)
    Complete name : J: АнимеДевушки и Танки (Girls und Panzer) BDRip (2012-2015)OVA17 (OVA-2). Survival War! (Бой на выживание!).mkv
    Format : Matroska
    Format version : Version 4
    File size : 3.55 GiB
    Duration : 13 min 46 s
    Overall bit rate mode : Variable
    Overall bit rate : 36.9 Mb/s
    Encoded date : UTC 2019-07-11 09: 33: 05
    Writing application : mkvmerge v35.0.0 (\'All The Love In The World\') 64-bit
    Writing library : libebml v1.3.9 + libmatroska v1.5.2
    Video
    ID : 1
    Format : AVC
    Format/Info : Advanced Video Codec
    Format profile : High@L4.1
    Format settings : CABAC/4 Ref Frames
    Format settings, CABAC : Yes
    Format settings, Reference : 4 frames
    Codec ID : V_MPEG4/ISO/AVC
    Duration : 13 min 46 s
    Bit rate mode : Variable
    Bit rate : 35.4 Mb/s
    Maximum bit rate : 39.0 Mb/s
    Width : 1 920 pixels
    Height : 1 080 pixels
    Display aspect ratio : 16: 9
    Frame rate mode : Constant
    Frame rate : 23.976 (24000/1001) FPS
    Color space : YUV
    Chroma subsampling : 4: 2: 0
    Bit depth : 8 bits
    Scan type : Progressive
    Bits/(Pixel*Frame) : 0.711
    Stream size : 3.40 GiB (96%)
    Language : Japanese
    Default : No
    Forced : No
    Audio
    ID : 2
    Format : FLAC
    Format/Info : Free Lossless Audio Codec
    Codec ID : A_FLAC
    Duration : 13 min 46 s
    Bit rate mode : Variable
    Bit rate : 1 495 kb/s
    Channel(s) : 2 channels
    Channel layout : L R
    Sampling rate : 48.0 kHz
    Frame rate : 11.719 FPS (4096 SPF)
    Bit depth : 24 bits
    Compression mode : Lossless
    Stream size : 147 MiB (4%)
    Title : Original
    Writing library : libFLAC 1.2.1 (UTC 2007-09-17)
    Language : Japanese
    Default : Yes
    Forced : No
    Text
    ID : 3
    Format : ASS
    Codec ID : S_TEXT/ASS
    Codec ID/Info : Advanced Sub Station Alpha
    Duration : 13 min 43 s
    Bit rate : 657 b/s
    Count of elements : 537
    Compression mode : Lossless
    Stream size : 66.1 KiB (0%)
    Title : Full
    Language : Russian
    Default : Yes
    Forced : No
    Menu
    00: 00: 00.000 : en: 00: 00: 00.000
    00: 01: 31.091 : en: 00: 01: 31.091
    00: 12: 15.735 : en: 00: 12: 15.735



    General
    Unique ID : 124616682631465341462201267476194270581 (0x5DC04CD10F8DBEF03EED7C1D71FE1D75)
    Complete name : J: АнимеДевушки и Танки (Girls und Panzer) BDRip (2012-2015)OVA18 (OVA-3). School Ship War! (Прогулка по школоносцу!).mkv
    Format : Matroska
    Format version : Version 4
    File size : 3.80 GiB
    Duration : 14 min 10 s
    Overall bit rate mode : Variable
    Overall bit rate : 38.3 Mb/s
    Encoded date : UTC 2019-07-11 09: 35: 26
    Writing application : mkvmerge v35.0.0 (\'All The Love In The World\') 64-bit
    Writing library : libebml v1.3.9 + libmatroska v1.5.2
    Video
    ID : 1
    Format : AVC
    Format/Info : Advanced Video Codec
    Format profile : High@L4.1
    Format settings : CABAC/4 Ref Frames
    Format settings, CABAC : Yes
    Format settings, Reference : 4 frames
    Codec ID : V_MPEG4/ISO/AVC
    Duration : 14 min 10 s
    Bit rate mode : Variable
    Bit rate : 36.8 Mb/s
    Maximum bit rate : 39.0 Mb/s
    Width : 1 920 pixels
    Height : 1 080 pixels
    Display aspect ratio : 16: 9
    Frame rate mode : Constant
    Frame rate : 23.976 (24000/1001) FPS
    Color space : YUV
    Chroma subsampling : 4: 2: 0
    Bit depth : 8 bits
    Scan type : Progressive
    Bits/(Pixel*Frame) : 0.741
    Stream size : 3.65 GiB (96%)
    Language : Japanese
    Default : No
    Forced : No
    Audio
    ID : 2
    Format : FLAC
    Format/Info : Free Lossless Audio Codec
    Codec ID : A_FLAC
    Duration : 14 min 10 s
    Bit rate mode : Variable
    Bit rate : 1 480 kb/s
    Channel(s) : 2 channels
    Channel layout : L R
    Sampling rate : 48.0 kHz
    Frame rate : 11.719 FPS (4096 SPF)
    Bit depth : 24 bits
    Compression mode : Lossless
    Stream size : 150 MiB (4%)
    Title : Original
    Writing library : libFLAC 1.2.1 (UTC 2007-09-17)
    Language : Japanese
    Default : Yes
    Forced : No
    Text
    ID : 3
    Format : ASS
    Codec ID : S_TEXT/ASS
    Codec ID/Info : Advanced Sub Station Alpha
    Duration : 14 min 7 s
    Bit rate : 297 b/s
    Count of elements : 334
    Compression mode : Lossless
    Stream size : 30.8 KiB (0%)
    Title : Full
    Language : Russian
    Default : Yes
    Forced : No
    Menu
    00: 00: 00.000 : en: 00: 00: 00.000
    00: 01: 31.091 : en: 00: 01: 31.091
    00: 12: 39.759 : en: 00: 12: 39.759



    General
    Unique ID : 219654753847012883015423286516325299387 (0xA53FF77F4B2CA0F50ACE3FC7208434BB)
    Complete name : J: АнимеДевушки и Танки (Girls und Panzer) BDRip (2012-2015)OVA19 (OVA-4). Anglerfish War! (Война рыбы-удильщика!).mkv
    Format : Matroska
    Format version : Version 4
    File size : 993 MiB
    Duration : 3 min 55 s
    Overall bit rate mode : Variable
    Overall bit rate : 35.4 Mb/s
    Encoded date : UTC 2019-07-11 09: 37: 59
    Writing application : mkvmerge v35.0.0 (\'All The Love In The World\') 64-bit
    Writing library : libebml v1.3.9 + libmatroska v1.5.2
    Video
    ID : 1
    Format : AVC
    Format/Info : Advanced Video Codec
    Format profile : High@L4.1
    Format settings : CABAC/4 Ref Frames
    Format settings, CABAC : Yes
    Format settings, Reference : 4 frames
    Codec ID : V_MPEG4/ISO/AVC
    Duration : 3 min 55 s
    Bit rate mode : Variable
    Bit rate : 33.8 Mb/s
    Maximum bit rate : 39.0 Mb/s
    Width : 1 920 pixels
    Height : 1 080 pixels
    Display aspect ratio : 16: 9
    Frame rate mode : Constant
    Frame rate : 23.976 (24000/1001) FPS
    Color space : YUV
    Chroma subsampling : 4: 2: 0
    Bit depth : 8 bits
    Scan type : Progressive
    Bits/(Pixel*Frame) : 0.679
    Stream size : 947 MiB (95%)
    Language : Japanese
    Default : No
    Forced : No
    Audio
    ID : 2
    Format : FLAC
    Format/Info : Free Lossless Audio Codec
    Codec ID : A_FLAC
    Duration : 3 min 55 s
    Bit rate mode : Variable
    Bit rate : 1 650 kb/s
    Channel(s) : 2 channels
    Channel layout : L R
    Sampling rate : 48.0 kHz
    Frame rate : 11.719 FPS (4096 SPF)
    Bit depth : 24 bits
    Compression mode : Lossless
    Stream size : 46.3 MiB (5%)
    Title : Original
    Writing library : libFLAC 1.2.1 (UTC 2007-09-17)
    Language : Japanese
    Default : Yes
    Forced : No
    Text
    ID : 3
    Format : ASS
    Codec ID : S_TEXT/ASS
    Codec ID/Info : Advanced Sub Station Alpha
    Duration : 3 min 12 s
    Bit rate : 309 b/s
    Count of elements : 79
    Compression mode : Lossless
    Stream size : 7.26 KiB (0%)
    Title : Full
    Language : Russian
    Default : Yes
    Forced : No
    Menu
    00: 00: 00.000 : en: 00: 00: 00.000
    00: 01: 31.091 : en: 00: 01: 31.091
    00: 03: 28.125 : en: 00: 03: 28.125



    General
    Unique ID : 324088504843058401989072017023201535682 (0xF3D12CF4D5E3ECD993DC995DB5A966C2)
    Complete name : J: АнимеДевушки и Танки (Girls und Panzer) BDRip (2012-2015)OVA20 (OVA-5). Snow War (Снежная война!).mkv
    Format : Matroska
    Format version : Version 4
    File size : 4.07 GiB
    Duration : 15 min 8 s
    Overall bit rate mode : Variable
    Overall bit rate : 38.4 Mb/s
    Encoded date : UTC 2019-07-11 09: 38: 42
    Writing application : mkvmerge v35.0.0 (\'All The Love In The World\') 64-bit
    Writing library : libebml v1.3.9 + libmatroska v1.5.2
    Video
    ID : 1
    Format : AVC
    Format/Info : Advanced Video Codec
    Format profile : High@L4.1
    Format settings : CABAC/4 Ref Frames
    Format settings, CABAC : Yes
    Format settings, Reference : 4 frames
    Codec ID : V_MPEG4/ISO/AVC
    Duration : 15 min 8 s
    Bit rate mode : Variable
    Bit rate : 37.0 Mb/s
    Maximum bit rate : 39.0 Mb/s
    Width : 1 920 pixels
    Height : 1 080 pixels
    Display aspect ratio : 16: 9
    Frame rate mode : Constant
    Frame rate : 23.976 (24000/1001) FPS
    Color space : YUV
    Chroma subsampling : 4: 2: 0
    Bit depth : 8 bits
    Scan type : Progressive
    Bits/(Pixel*Frame) : 0.744
    Stream size : 3.91 GiB (96%)
    Language : Japanese
    Default : No
    Forced : No
    Audio
    ID : 2
    Format : FLAC
    Format/Info : Free Lossless Audio Codec
    Codec ID : A_FLAC
    Duration : 15 min 8 s
    Bit rate mode : Variable
    Bit rate : 1 430 kb/s
    Channel(s) : 2 channels
    Channel layout : L R
    Sampling rate : 48.0 kHz
    Frame rate : 11.719 FPS (4096 SPF)
    Bit depth : 24 bits
    Compression mode : Lossless
    Stream size : 155 MiB (4%)
    Title : Original
    Writing library : libFLAC 1.2.1 (UTC 2007-09-17)
    Language : Japanese
    Default : Yes
    Forced : No
    Text
    ID : 3
    Format : ASS
    Codec ID : S_TEXT/ASS
    Codec ID/Info : Advanced Sub Station Alpha
    Duration : 14 min 58 s
    Bit rate : 298 b/s
    Count of elements : 334
    Compression mode : Lossless
    Stream size : 32.8 KiB (0%)
    Title : Full
    Language : Russian
    Default : Yes
    Forced : No
    Menu
    00: 00: 00.000 : en: 00: 00: 00.000
    00: 01: 31.008 : en: 00: 01: 31.008
    00: 13: 30.018 : en: 00: 13: 30.018



    General
    Unique ID : 312177189621806731637809232474686298144 (0xEADB23C64F80C4222A5284F317171820)
    Complete name : J: АнимеДевушки и Танки (Girls und Panzer) BDRip (2012-2015)Specials5.5 (Special-1). Introductions! 1 (Знакомство!).mkv
    Format : Matroska
    Format version : Version 4
    File size : 1.53 GiB
    Duration : 24 min 4 s
    Overall bit rate mode : Variable
    Overall bit rate : 9 114 kb/s
    Encoded date : UTC 2019-07-11 09: 17: 53
    Writing application : mkvmerge v35.0.0 (\'All The Love In The World\') 64-bit
    Writing library : libebml v1.3.9 + libmatroska v1.5.2
    Attachments : BOOKOS.TTF/calibri.ttf/comic.ttf/comicbd.ttf/DINPro-Bold.ttf/GARA.TTF/HammerSickle.ttf/Izhitsa.ttf/MTCORSVA.TTF/MyriadPro-Bold.otf/MyriadPro-BoldCond.otf/MyriadPro-BoldCondIt.otf/MyriadPro-BoldIt.otf/MyriadPro-Cond.otf/MyriadPro-CondIt.otf/MyriadPro-It.otf/MyriadPro-Regular.otf/MyriadPro-Semibold.otf/MyriadPro-SemiboldIt.otf/trebuc.ttf/trebucbd.ttf/trebucbi.ttf/trebucit.ttf/a_StamperRgBt.ttf/Arbat.ttf/bkant.TTF
    Video
    ID : 1
    Format : AVC
    Format/Info : Advanced Video Codec
    Format profile : High10@L4.1
    Format settings : CABAC/4 Ref Frames
    Format settings, CABAC : Yes
    Format settings, Reference : 4 frames
    Codec ID : V_MPEG4/ISO/AVC
    Duration : 24 min 4 s
    Bit rate : 7 461 kb/s
    Width : 1 920 pixels
    Height : 1 080 pixels
    Display aspect ratio : 16: 9
    Frame rate mode : Constant
    Frame rate : 23.976 (24000/1001) FPS
    Color space : YUV
    Chroma subsampling : 4: 2: 0
    Bit depth : 10 bits
    Scan type : Progressive
    Bits/(Pixel*Frame) : 0.150
    Stream size : 1.26 GiB (82%)
    Writing library : x264 core 128 r2216 198a7ea
    Encoding settings : cabac=1/ref=4/deblock=1: -2: -2/analyse=0x3: 0x133/me=umh/subme=9/psy=1/psy_rd=1.00: 0.00/mixed_ref=1/me_range=24/chroma_me=1/trellis=2/8x8dct=1/cqm=0/deadzone=21, 11/fast_pskip=1/chroma_qp_offset=-2/threads=12/lookahead_threads=2/sliced_threads=0/nr=0/decimate=0/interlaced=0/bluray_compat=0/constrained_intra=0/bframes=8/b_pyramid=2/b_adapt=2/b_bias=0/direct=3/weightb=1/open_gop=0/weightp=2/keyint=250/keyint_min=23/scenecut=40/intra_refresh=0/rc=crf/mbtree=0/crf=16.0/qcomp=0.70/qpmin=0/qpmax=60/qpstep=4/ip_ratio=1.40/pb_ratio=1.30/aq=1: 0.90
    Language : Japanese
    Default : Yes
    Forced : No
    Audio #1
    ID : 2
    Format : AC-3
    Format/Info : Audio Coding 3
    Commercial name : Dolby Digital
    Codec ID : A_AC3
    Duration : 24 min 4 s
    Bit rate mode : Constant
    Bit rate : 192 kb/s
    Channel(s) : 2 channels
    Channel layout : L R
    Sampling rate : 48.0 kHz
    Frame rate : 31.250 FPS (1536 SPF)
    Compression mode : Lossy
    Stream size : 33.1 MiB (2%)
    Title : Eladiel
    Language : Russian
    Service kind : Complete Main
    Default : Yes
    Forced : No
    Audio #2
    ID : 3
    Format : FLAC
    Format/Info : Free Lossless Audio Codec
    Codec ID : A_FLAC
    Duration : 24 min 4 s
    Bit rate mode : Variable
    Bit rate : 1 437 kb/s
    Channel(s) : 2 channels
    Channel layout : L R
    Sampling rate : 48.0 kHz
    Frame rate : 11.719 FPS (4096 SPF)
    Bit depth : 24 bits
    Compression mode : Lossless
    Stream size : 248 MiB (16%)
    Title : Original
    Writing library : libFLAC 1.2.1 (UTC 2007-09-17)
    Language : Japanese
    Default : No
    Forced : No
    Text #1
    ID : 4
    Format : ASS
    Codec ID : S_TEXT/ASS
    Codec ID/Info : Advanced Sub Station Alpha
    Duration : 20 min 47 s
    Bit rate : 118 b/s
    Count of elements : 108
    Compression mode : Lossless
    Stream size : 18.0 KiB (0%)
    Title : Forced (Uncle_Ho)
    Language : Russian
    Default : Yes
    Forced : No
    Text #2
    ID : 5
    Format : ASS
    Codec ID : S_TEXT/ASS
    Codec ID/Info : Advanced Sub Station Alpha
    Duration : 21 min 1 s
    Bit rate : 318 b/s
    Count of elements : 472
    Compression mode : Lossless
    Stream size : 49.0 KiB (0%)
    Title : Full (Uncle_Ho)
    Language : Russian
    Default : No
    Forced : No
    Menu
    00: 00: 00.000 : : OP
    00: 01: 29.964 : : Part A
    00: 11: 34.944 : : Part B
    00: 22: 32.934 : : ED



    General
    Unique ID : 40087209617739005754115648591820459310 (0x1E2884077826F92134E10BAF9AE38D2E)
    Complete name : J: АнимеДевушки и Танки (Girls und Panzer) BDRip (2012-2015)Specials11.5 (Special-2). Introductions! 2 (Знакомство 2!).mkv
    Format : Matroska
    Format version : Version 4
    File size : 1.75 GiB
    Duration : 24 min 10 s
    Overall bit rate mode : Variable
    Overall bit rate : 10.4 Mb/s
    Encoded date : UTC 2019-07-11 09: 25: 09
    Writing application : mkvmerge v35.0.0 (\'All The Love In The World\') 64-bit
    Writing library : libebml v1.3.9 + libmatroska v1.5.2
    Attachments : calibri.ttf/comic.ttf/comicbd.ttf/DINPro-Bold.ttf/GARA.TTF/HammerSickle.ttf/Izhitsa.ttf/MTCORSVA.TTF/MyriadPro-Bold.otf/MyriadPro-BoldCond.otf/MyriadPro-BoldCondIt.otf/MyriadPro-BoldIt.otf/MyriadPro-Cond.otf/MyriadPro-CondIt.otf/MyriadPro-It.otf/MyriadPro-Regular.otf/MyriadPro-Semibold.otf/MyriadPro-SemiboldIt.otf/trebuc.ttf/trebucbd.ttf/trebucbi.ttf/trebucit.ttf/a_StamperRgBt.ttf/Arbat.ttf/bkant.TTF/BOOKOS.TTF
    Video
    ID : 1
    Format : AVC
    Format/Info : Advanced Video Codec
    Format profile : High10@L4.1
    Format settings : CABAC/4 Ref Frames
    Format settings, CABAC : Yes
    Format settings, Reference : 4 frames
    Codec ID : V_MPEG4/ISO/AVC
    Duration : 24 min 10 s
    Bit rate : 8 645 kb/s
    Width : 1 920 pixels
    Height : 1 080 pixels
    Display aspect ratio : 16: 9
    Frame rate mode : Constant
    Frame rate : 23.976 (24000/1001) FPS
    Color space : YUV
    Chroma subsampling : 4: 2: 0
    Bit depth : 10 bits
    Scan type : Progressive
    Bits/(Pixel*Frame) : 0.174
    Stream size : 1.46 GiB (83%)
    Writing library : x264 core 128 r2216 198a7ea
    Encoding settings : cabac=1/ref=4/deblock=1: -2: -2/analyse=0x3: 0x133/me=umh/subme=9/psy=1/psy_rd=1.00: 0.00/mixed_ref=1/me_range=24/chroma_me=1/trellis=2/8x8dct=1/cqm=0/deadzone=21, 11/fast_pskip=1/chroma_qp_offset=-2/threads=12/lookahead_threads=2/sliced_threads=0/nr=0/decimate=0/interlaced=0/bluray_compat=0/constrained_intra=0/bframes=8/b_pyramid=2/b_adapt=2/b_bias=0/direct=3/weightb=1/open_gop=0/weightp=2/keyint=250/keyint_min=23/scenecut=40/intra_refresh=0/rc=crf/mbtree=0/crf=16.0/qcomp=0.70/qpmin=0/qpmax=60/qpstep=4/ip_ratio=1.40/pb_ratio=1.30/aq=1: 0.90
    Language : Japanese
    Default : Yes
    Forced : No
    Audio #1
    ID : 2
    Format : AC-3
    Format/Info : Audio Coding 3
    Commercial name : Dolby Digital
    Codec ID : A_AC3
    Duration : 24 min 10 s
    Bit rate mode : Constant
    Bit rate : 192 kb/s
    Channel(s) : 2 channels
    Channel layout : L R
    Sampling rate : 48.0 kHz
    Frame rate : 31.250 FPS (1536 SPF)
    Compression mode : Lossy
    Stream size : 33.2 MiB (2%)
    Title : Eladiel
    Language : Russian
    Service kind : Complete Main
    Default : Yes
    Forced : No
    Audio #2
    ID : 3
    Format : FLAC
    Format/Info : Free Lossless Audio Codec
    Codec ID : A_FLAC
    Duration : 24 min 10 s
    Bit rate mode : Variable
    Bit rate : 1 523 kb/s
    Channel(s) : 2 channels
    Channel layout : L R
    Sampling rate : 48.0 kHz
    Frame rate : 11.719 FPS (4096 SPF)
    Bit depth : 24 bits
    Compression mode : Lossless
    Stream size : 264 MiB (15%)
    Title : Original
    Writing library : libFLAC 1.2.1 (UTC 2007-09-17)
    Language : Japanese
    Default : No
    Forced : No
    Text #1
    ID : 4
    Format : ASS
    Codec ID : S_TEXT/ASS
    Codec ID/Info : Advanced Sub Station Alpha
    Duration : 20 min 20 s
    Bit rate : 898 b/s
    Count of elements : 760
    Compression mode : Lossless
    Stream size : 134 KiB (0%)
    Title : Forced (Uncle_Ho)
    Language : Russian
    Default : Yes
    Forced : No
    Text #2
    ID : 5
    Format : ASS
    Codec ID : S_TEXT/ASS
    Codec ID/Info : Advanced Sub Station Alpha
    Duration : 21 min 6 s
    Bit rate : 1 063 b/s
    Count of elements : 1051
    Compression mode : Lossless
    Stream size : 164 KiB (0%)
    Title : Full (Uncle_Ho)
    Language : Russian
    Default : No
    Forced : No
    Menu
    00: 00: 00.000 : : OP
    00: 01: 30.006 : : Part A
    00: 12: 05.975 : : Part B
    00: 22: 40.025 : : ED



    General
    Unique ID : 143421170224123233227042471070082430253 (0x6BE5E9A2BBD64F3CBD1348037DCA752D)
    Complete name : J: АнимеДевушки и Танки (Girls und Panzer) BDRip (2012-2015)Specials15 (Special-3). Война за Арису!.mkv
    Format : Matroska
    Format version : Version 4
    File size : 674 MiB
    Duration : 15 min 57 s
    Overall bit rate mode : Variable
    Overall bit rate : 5 903 kb/s
    Encoded date : UTC 2019-05-12 08: 50: 07
    Writing application : mkvmerge v32.0.0 (\'Astral Progressions\') 64-bit
    Writing library : libebml v1.3.7 + libmatroska v1.5.0
    Video
    ID : 1
    Format : AVC
    Format/Info : Advanced Video Codec
    Format profile : High 10@L5
    Format settings : CABAC/4 Ref Frames
    Format settings, CABAC : Yes
    Format settings, Reference : 4 frames
    Codec ID : V_MPEG4/ISO/AVC
    Duration : 15 min 57 s
    Bit rate : 4 474 kb/s
    Width : 1 920 pixels
    Height : 1 080 pixels
    Display aspect ratio : 16: 9
    Frame rate mode : Constant
    Frame rate : 23.976 (24000/1001) FPS
    Color space : YUV
    Chroma subsampling : 4: 2: 0
    Bit depth : 10 bits
    Scan type : Progressive
    Bits/(Pixel*Frame) : 0.090
    Stream size : 511 MiB (76%)
    Writing library : x264 core 148 (DJATOM\'s build)
    Encoding settings : cabac=1/ref=4/deblock=1: 1: -1/analyse=0x3: 0x133/me=umh/subme=9/psy=1/fade_compensate=0.00/psy_rd=1.00: 0.00/mixed_ref=1/me_range=32/chroma_me=1/trellis=2/8x8dct=1/cqm=0/deadzone=21, 11/fast_pskip=1/chroma_qp_offset=-2/threads=6/lookahead_threads=1/sliced_threads=0/nr=0/decimate=1/interlaced=0/bluray_compat=0/constrained_intra=0/bframes=9/b_pyramid=2/b_adapt=2/b_bias=0/direct=1/weightb=1/open_gop=0/weightp=2/keyint=250/keyint_min=23/scenecut=40/intra_refresh=0/rc=crf/mbtree=0/crf=15.0000/qcomp=0.72/qpmin=0/qpmax=81/qpstep=4/ip_ratio=1.40/pb_ratio=1.30/aq=1: 0.85
    Language : Japanese
    Default : Yes
    Forced : No
    Color range : Limited
    Color primaries : BT.709
    Transfer characteristics : BT.709
    Matrix coefficients : BT.709
    Audio
    ID : 2
    Format : FLAC
    Format/Info : Free Lossless Audio Codec
    Codec ID : A_FLAC
    Duration : 15 min 57 s
    Bit rate mode : Variable
    Bit rate : 1 426 kb/s
    Channel(s) : 2 channels
    Channel layout : L R
    Sampling rate : 48.0 kHz
    Frame rate : 11.720 FPS (4096 SPF)
    Bit depth : 24 bits
    Compression mode : Lossless
    Stream size : 163 MiB (24%)
    Title : Original
    Writing library : libFLAC 1.3.1 (UTC 2014-11-25)
    Language : Japanese
    Default : Yes
    Forced : No
    Text
    ID : 3
    Format : ASS
    Codec ID : S_TEXT/ASS
    Codec ID/Info : Advanced Sub Station Alpha
    Duration : 14 min 2 s
    Bit rate : 199 b/s
    Count of elements : 267
    Compression mode : Lossless
    Stream size : 20.5 KiB (0%)
    Title : Full (Elven_tankman Koushin)
    Language : Russian
    Default : Yes
    Forced : No
    Menu
    00: 00: 00.000 : : OP
    00: 01: 32.092 : : Part A
    00: 14: 26.866 : : ED



    General
    Unique ID : 15162472609143520766164212477177827924 (0xB682F9DE2A9D75DD5392DA6AB171254)
    Complete name : J: АнимеДевушки и Танки (Girls und Panzer) BDRip (2012-2015)Specials21 (Special-4). Akiyama Yukari no Sensha Kouza. Part 1 (Изучаем танки с Акиямой Юкари).mkv
    Format : Matroska
    Format version : Version 4
    File size : 1.38 GiB
    Duration : 5 min 18 s
    Overall bit rate mode : Variable
    Overall bit rate : 37.2 Mb/s
    Encoded date : UTC 2019-07-11 09: 41: 28
    Writing application : mkvmerge v35.0.0 (\'All The Love In The World\') 64-bit
    Writing library : libebml v1.3.9 + libmatroska v1.5.2
    Video
    ID : 1
    Format : AVC
    Format/Info : Advanced Video Codec
    Format profile : High@L4.1
    Format settings : CABAC/4 Ref Frames
    Format settings, CABAC : Yes
    Format settings, Reference : 4 frames
    Codec ID : V_MPEG4/ISO/AVC
    Duration : 5 min 18 s
    Bit rate mode : Variable
    Bit rate : 35.8 Mb/s
    Maximum bit rate : 39.0 Mb/s
    Width : 1 920 pixels
    Height : 1 080 pixels
    Display aspect ratio : 16: 9
    Frame rate mode : Constant
    Frame rate : 23.976 (24000/1001) FPS
    Color space : YUV
    Chroma subsampling : 4: 2: 0
    Bit depth : 8 bits
    Scan type : Progressive
    Bits/(Pixel*Frame) : 0.720
    Stream size : 1.33 GiB (96%)
    Language : Japanese
    Default : No
    Forced : No
    Audio
    ID : 2
    Format : FLAC
    Format/Info : Free Lossless Audio Codec
    Codec ID : A_FLAC
    Duration : 5 min 18 s
    Bit rate mode : Variable
    Bit rate : 1 437 kb/s
    Channel(s) : 2 channels
    Channel layout : L R
    Sampling rate : 48.0 kHz
    Frame rate : 11.720 FPS (4096 SPF)
    Bit depth : 24 bits
    Compression mode : Lossless
    Delay relative to video : 55 ms
    Stream size : 54.5 MiB (4%)
    Title : Original
    Writing library : libFLAC 1.2.1 (UTC 2007-09-17)
    Language : Japanese
    Default : Yes
    Forced : No
    Text
    ID : 3
    Format : ASS
    Codec ID : S_TEXT/ASS
    Codec ID/Info : Advanced Sub Station Alpha
    Duration : 5 min 14 s
    Bit rate : 414 b/s
    Count of elements : 100
    Compression mode : Lossless
    Stream size : 15.9 KiB (0%)
    Title : Full
    Language : Russian
    Default : Yes
    Forced : No
    Menu
    00: 00: 00.000 : en: 00: 09: 56.596



    General
    Unique ID : 153209750860877654452296320637886582897 (0x73431FEC0B75898FFA9A816C8F28D071)
    Complete name : J: АнимеДевушки и Танки (Girls und Panzer) BDRip (2012-2015)Specials22 (Special-5). Akiyama Yukari no Sensha Kouza. Part 2 (Изучаем танки с Акиямой Юкари).mkv
    Format : Matroska
    Format version : Version 4
    File size : 1.56 GiB
    Duration : 6 min 21 s
    Overall bit rate mode : Variable
    Overall bit rate : 35.1 Mb/s
    Encoded date : UTC 2019-07-11 09: 42: 31
    Writing application : mkvmerge v35.0.0 (\'All The Love In The World\') 64-bit
    Writing library : libebml v1.3.9 + libmatroska v1.5.2
    Video
    ID : 1
    Format : AVC
    Format/Info : Advanced Video Codec
    Format profile : High@L4.1
    Format settings : CABAC/4 Ref Frames
    Format settings, CABAC : Yes
    Format settings, Reference : 4 frames
    Codec ID : V_MPEG4/ISO/AVC
    Duration : 6 min 21 s
    Bit rate mode : Variable
    Bit rate : 33.7 Mb/s
    Maximum bit rate : 39.0 Mb/s
    Width : 1 920 pixels
    Height : 1 080 pixels
    Display aspect ratio : 16: 9
    Frame rate mode : Constant
    Frame rate : 23.976 (24000/1001) FPS
    Color space : YUV
    Chroma subsampling : 4: 2: 0
    Bit depth : 8 bits
    Scan type : Progressive
    Bits/(Pixel*Frame) : 0.678
    Stream size : 1.50 GiB (96%)
    Language : Japanese
    Default : No
    Forced : No
    Audio
    ID : 2
    Format : FLAC
    Format/Info : Free Lossless Audio Codec
    Codec ID : A_FLAC
    Duration : 6 min 21 s
    Bit rate mode : Variable
    Bit rate : 1 441 kb/s
    Channel(s) : 2 channels
    Channel layout : L R
    Sampling rate : 48.0 kHz
    Frame rate : 11.720 FPS (4096 SPF)
    Bit depth : 24 bits
    Compression mode : Lossless
    Delay relative to video : 54 ms
    Stream size : 65.5 MiB (4%)
    Title : Original
    Writing library : libFLAC 1.2.1 (UTC 2007-09-17)
    Language : Japanese
    Default : Yes
    Forced : No
    Text
    ID : 3
    Format : ASS
    Codec ID : S_TEXT/ASS
    Codec ID/Info : Advanced Sub Station Alpha
    Duration : 6 min 16 s
    Bit rate : 455 b/s
    Count of elements : 115
    Compression mode : Lossless
    Stream size : 20.9 KiB (0%)
    Title : Full
    Language : Russian
    Default : Yes
    Forced : No
    Menu
    00: 00: 00.000 : en: 00: 13: 46.826



    General
    Unique ID : 182663944914377453988561999187062417825 (0x896BCBCEFB7B3F2992970B3DD4F9E9A1)
    Complete name : J: АнимеДевушки и Танки (Girls und Panzer) BDRip (2012-2015)Specials23 (Special-6). Akiyama Yukari no Sensha Kouza. Part 3 (Изучаем танки с Акиямой Юкари).mkv
    Format : Matroska
    Format version : Version 4
    File size : 1.68 GiB
    Duration : 10 min 1 s
    Overall bit rate mode : Variable
    Overall bit rate : 24.0 Mb/s
    Encoded date : UTC 2019-07-11 09: 43: 46
    Writing application : mkvmerge v35.0.0 (\'All The Love In The World\') 64-bit
    Writing library : libebml v1.3.9 + libmatroska v1.5.2
    Video
    ID : 1
    Format : AVC
    Format/Info : Advanced Video Codec
    Format profile : High@L4.1
    Format settings : CABAC/4 Ref Frames
    Format settings, CABAC : Yes
    Format settings, Reference : 4 frames
    Codec ID : V_MPEG4/ISO/AVC
    Duration : 10 min 1 s
    Bit rate mode : Variable
    Bit rate : 22.6 Mb/s
    Maximum bit rate : 39.0 Mb/s
    Width : 1 920 pixels
    Height : 1 080 pixels
    Display aspect ratio : 16: 9
    Frame rate mode : Constant
    Frame rate : 23.976 (24000/1001) FPS
    Color space : YUV
    Chroma subsampling : 4: 2: 0
    Bit depth : 8 bits
    Scan type : Progressive
    Bits/(Pixel*Frame) : 0.455
    Stream size : 1.58 GiB (94%)
    Language : Japanese
    Default : No
    Forced : No
    Audio
    ID : 2
    Format : FLAC
    Format/Info : Free Lossless Audio Codec
    Codec ID : A_FLAC
    Duration : 10 min 1 s
    Bit rate mode : Variable
    Bit rate : 1 432 kb/s
    Channel(s) : 2 channels
    Channel layout : L R
    Sampling rate : 48.0 kHz
    Frame rate : 11.719 FPS (4096 SPF)
    Bit depth : 24 bits
    Compression mode : Lossless
    Delay relative to video : 9 ms
    Stream size : 103 MiB (6%)
    Title : Original
    Writing library : libFLAC 1.2.1 (UTC 2007-09-17)
    Language : Japanese
    Default : Yes
    Forced : No
    Text
    ID : 3
    Format : ASS
    Codec ID : S_TEXT/ASS
    Codec ID/Info : Advanced Sub Station Alpha
    Duration : 9 min 54 s
    Bit rate : 467 b/s
    Count of elements : 225
    Compression mode : Lossless
    Stream size : 34.0 KiB (0%)
    Title : Full
    Language : Russian
    Default : Yes
    Forced : No
    Menu
    00: 00: 00.000 : en: 00: 14: 10.850

    Время раздачи: С 8: 00 по 18: 00 МСК (до появления первых 3-5 скачавших)
    Понравился релиз? Ставь Оценку и нажми Спасибо
    Это серьёзно меня мотивирует делать подобные релизы.
    Если всем сердцем любишь аниме - подключайся и оставайся на раздаче максимально долго!


    Онлайн видео Girls und Panzer


    Girls und Panzer | Girls & Panzer | Девушки и Танки [2012, TV, 12 ep + 5 OVA + 6 Specials] BDRip 1080p 10-bit raw+rus торрент скачать бесплатно
    Рейтинг →
     (голосов: 1, оценка 4/5, голосовать можно 1 раз )

    Другие торренты по теме:

  • Девушки и танки (фильм) | Girls und Panzer Gekijouban | Girls und Panzer der Film [2015, Movie] BDrip 1080p Hi10P raw
  • Girls und Panzer: Saishuushou | Girls und Panzer das Final | Девушки и танки: Финал [2017, Movie, 1 из 6 эп.] BDrip 1080p raw
  • Girls und Panzer Gekijouban | Girls und Panzer der Film | Девушки и Танки. Фильм [2015, Movie] BDRip 1080p 10-bit raw+rus
  • Girls und Panzer: Kore ga Hontou no Anzio-sen Desu! | Девочки и Танки OVA [2014, OVA, 1 эп. + 1 SP] BDrip 1080p raw
  • Girls und Panzer: Kore ga Hontou no Anzio-sen Desu! | Девушки и Танки: Настоящая Битва за Анцио! [2014, OVA] BDRip 1080p raw+rus


    • Комментарии (0):

      Информация

      Информация

        Посетители, находящиеся в группе Гости, не могут оставлять комментарии в данной новости.

        ↓ Меню




        Популярное

        Жила-была царевна (2015-2019) WEB-DLRip [H.264 / 720p-LQ] (сезон 1, серии 1-18 из 26) [Обновляемая]

        (скачиваний: 3)
        Сергей Матвеев | Полный курс английского языка для лентяев (2016) [PDF]

        (скачиваний: 3)
        Серия книг | Образовательная манга (2010 - 2015) [PDF]

        (скачиваний: 3)
        Gekijouban KanColle | Kantai Collection Movie | Fleet Girls Collection: Movie Sequence| Коллекционная флотилия на большом экране [2016, Movie] BDrip 720p 10bit raw

        (скачиваний: 3)
        Свинка Пеппа / Peppa Pig (2004-2012) SATRip (1-4 сезоны: 208 серий из 209) скачать через торрент бесплатно

        (скачиваний: 2)
        Соман Чайнани | Цикл: «Школа Добра и Зла» [5 книг] (2018-2019) [FB2]

        (скачиваний: 1)
        Ева Ибботсон | Агентство «Фантом в каждый дом» (2018) [FB2, EPUB]

        (скачиваний: 1)
        Teito Monogatari / Doomed Megalopolis / Столичная история [1991, OVA, 4 ep.] DVDRip raw +eng

        (скачиваний: 1)
        Эндрю Лумис | Искусное рисование (2015) [PDF]

        (скачиваний: 1)
        Джим Роджерс | Сделайте ваших детей успешными (2013) [PDF, EPUB] скачать через торрент бесплатно

        (скачиваний: 1)