Подписывайся на наш канал в Telegram https://t.me/torrentok и получи доступ к торрентам без ограничений!
.
Авторизация | Регистрация
bitok.xyz
Торрент скачать бесплатно Мультфильмы торрент скачать Двенадцать / Twelve (2019) WEB-DLRip [MVO] торрент скачать бесплатно


    Двенадцать / Twelve (2019) WEB-DLRip [MVO] торрент скачать бесплатно

    Дата: 24-02-2020, 05:00 | .torrent скачали: 0

    Двенадцать / Twelve (2019) WEB-DLRip [MVO]Производство: США/Scarlet Sky Productions
    Жанр: Семейный, детский
    Режиссер: Стив Гримальди

    Актеры
    Эрик Хегер, Уайатт Ралфф, Джереми С. Холм, Дженнифер Мадж, Лиам Обергфолл, Джеймс МакМенамин, Лекси Коллинз, Мэттью Лоулер, Рик Занн, Петерсон Таунсенд

    Описание

    Заручившись поддержкой отца, маленький мальчик твердо решил осуществить свою мечту - пройти на Всемирный чемпионат детской лиги, чтобы впоследствии пробиться в профессиональный бейсбол.

    Продолжительность: 01: 32: 22
    Качество видео: WEB-DLRip
    Перевод: Многоголосый профессиональный(HDRezka Studio)
    Субтитры: Русские (отдельно)
    Видео: Xvid, 720x320 (2.25: 1), ~1925 Kbps
    Аудио: AC3, 2 ch, 192 Kbps - русский
    Общее
    Полное имя : G: Twelve.2019Twelve.2019.avi
    Формат : AVI
    Формат/Информация : Audio Video Interleave
    Размер файла : 1, 37 Гбайт
    Продолжительность : 1 ч. 32 м.
    Общий поток : 2128 Кбит/сек
    Программа кодирования : VirtualDubMod 1.5.10.3 |www.virtualdub-fr.org|| (build 2550/release)
    Библиотека кодирования : VirtualDubMod build 2550/release
    Авторское право : ExKinoRay
    Видео
    Идентификатор : 0
    Формат : MPEG-4 Visual
    Профиль формата : Advanced Simple@L5
    Настройки формата : BVOP1/Custom Matrix
    Параметр BVOP формата : 1
    Параметр QPel формата : Нет
    Параметр GMC формата : Без точки перехода
    Параметр матрицы формата : Выборочная
    Идентификатор кодека : XVID
    Идентификатор кодека/Подсказка : XviD
    Продолжительность : 1 ч. 32 м.
    Битрейт : 1927 Кбит/сек
    Ширина : 720 пикселей
    Высота : 320 пикселей
    Соотношение сторон : 2, 25: 1
    Частота кадров : 23, 976 (24000/1001) кадра/сек
    Частота кадров в оригинале : 23, 976 (23976/1000) кадра/сек
    Цветовое пространство : YUV
    Субдискретизация насыщенности : 4: 2: 0
    Битовая глубина : 8 бит
    Тип развёртки : Прогрессивная
    Метод сжатия : С потерями
    Бит/(Пиксели*Кадры) : 0.349
    Размер потока : 1, 24 Гбайт (91%)
    Библиотека кодирования : XviD 73
    Аудио
    Идентификатор : 1
    Формат : AC-3
    Формат/Информация : Audio Coding 3
    Коммерческое название : Dolby Digital
    Идентификатор кодека : 2000
    Продолжительность : 1 ч. 32 м.
    Вид битрейта : Постоянный
    Битрейт : 192 Кбит/сек
    Каналы : 2 канала
    ChannelLayout : L R
    Частота : 48, 0 КГц
    Частота кадров : 31, 250 кадров/сек (1536 SPF)
    Метод сжатия : С потерями
    Размер потока : 127 Мбайт (9%)
    Выравнивание : Разделение по промежуткам
    Продолжительность промежутка : 42 мс. (1, 00 видеокадр)
    Время предзагрузки промежутка : 500 мс.
    Заголовок : MVO
    ServiceKind/String : Complete Main

    Скриншоты для ознакомления



    Все одноименные релизы в Клубе
    Время раздачи: 24/7 (круглосуточно) (до появления первых 3-5 скачавших)

    Онлайн видео Двенадцать


    Двенадцать / Twelve (2019) WEB-DLRip [MVO] торрент скачать бесплатно
    Рейтинг →
     (голосов: 1, оценка 5/5, голосовать можно 1 раз )

    Другие торренты по теме:

  • Sable Maze 4: Twelve Fears / Темный лабиринт 4: Двенадцать страхов (2015) [Ru] Unofficial [Collectors Edition / Коллекционное издание] скачать через торрент бесплатно
  • Двенадцать друзей Оушена / Oceans Twelve (2004) BDRip [H.264 / 720p] скачать через торрент бесплатно
  • 12 обезьян (Двенадцать обезьян) / 12 Monkeys (Twelve Monkeys) (1995) BDRip [H.264 / 1080p] [Remastered]
  • Одиннадцать, Двенадцать, Тринадцать друзей Оушена. Трилогия / Oceans Eleven, Oceans Twelve, Oceans Thirteen. Trilogy (2001 - 2007) [720p] BDRip
  • Одиннадцать, Двенадцать, Тринадцать друзей Оушена / Oceans Eleven, Oceans Twelve, Oceans Thirteen (2001, 2004, 2007) BDRip [H.264 / 720p] [Трилогия]


    • Комментарии (0):

      Информация

      Информация

        Посетители, находящиеся в группе Гости, не могут оставлять комментарии в данной новости.

        ↓ Меню




        Популярное