ВАЖНО! Сайт скоро заблокируют! Подписывайся на наш канал в Telegram https://t.me/torrentok и получи доступ к торрентам без ограничений!
.
Авторизация | Регистрация
bitok.xyz
Торрент скачать бесплатно Мультфильмы торрент скачать Риф. Новые приключения / Go Fish (2019) WEBRip [H.264 / 1080p-LQ] (Online) торрент скачать бесплатно

    Риф. Новые приключения / Go Fish (2019) WEBRip [H.264 / 1080p-LQ] (Online) торрент скачать бесплатно

    Дата: 25-02-2020, 05:00 | .torrent скачали: 0

    Риф. Новые приключения / Go Fish (2019) WEBRip [H.264 / 1080p-LQ] (Online)Производство: США/Arcana Studio, Grindstone Entertainment Group
    Жанр: мультфильм, приключения

    Описание

    Это захватывающая и смешная история отважного Алекса — рыбы-попугая, который мечтает стать Супергероем. Он получает свой шанс, когда у его кораллового рифа вспыхивает таинственный поток чёрной жижи. Тогда Алекс и его приятели — морской конек, угорь и рыба-окунь — уплывают, чтобы противостоять угрозе и спасти свой дом, они сталкиваются с затонувшим кораблем со скрытыми сокровищами, заброшенным самолетом, злыми акулами и подводным вулканом.

    Возраст: 0+ (для любой зрительской аудитории)
    Рейтинг MPAA: PG (рекомендуется присутствие родителей)
    Дата мировой премьеры: 19 ноября 2019
    Дата российской премьеры: 16 января 2020, Magic Film Company
    Цифровой релиз: 13 февраля 2020, Веста
    Релиз от: Astral Projection
    Продолжительность: 01: 14: 40
    Качество видео: WEBRip
    Перевод: Дублированный (Online)
    Субтитры: Отсутствуют
    Видео: AVC/H.264, 1920x1080, ~6000 Kbps
    Аудио: AC3, 2 ch, 320 Kbps
    General
    Unique ID : 202225563407134991296665350663108902566 (0x98233A1021830F763E45A3655CAD3EA6)
    Complete name : D: TorrentUploadCartoonGo Fish.mkv
    Format : Matroska
    Format version : Version 4
    File size : 3.22 GiB
    Duration : 1 h 14 min
    Overall bit rate : 6 171 kb/s
    Encoded date : UTC 2020-02-24 00: 24: 09
    Writing application : mkvmerge v43.0.0 (\'The Quartermaster\') 64-bit
    Writing library : libebml v1.3.10 + libmatroska v1.5.2
    Video
    ID : 1
    Format : AVC
    Format/Info : Advanced Video Codec
    Format profile : High 4: 4: 4 Predictive@L4
    Format settings : CABAC/1 Ref Frames
    Format settings, CABAC : Yes
    Format settings, Reference frames : 1 frame
    Codec ID : V_MPEG4/ISO/AVC
    Duration : 1 h 14 min
    Bit rate : 6 000 kb/s
    Width : 1 920 pixels
    Height : 1 080 pixels
    Display aspect ratio : 16: 9
    Frame rate mode : Constant
    Frame rate : 23.976 (24000/1001) FPS
    Chroma subsampling : 4: 4: 4
    Bit depth : 8 bits
    Scan type : Progressive
    Bits/(Pixel*Frame) : 0.121
    Stream size : 3.05 GiB (95%)
    Writing library : x264 core 157 r2969 d4099dd
    Encoding settings : cabac=1/ref=1/deblock=0: -6: -6/analyse=0x3: 0/me=dia/subme=0/psy=1/psy_rd=1.00: 0.00/mixed_ref=0/me_range=8/chroma_me=1/trellis=0/8x8dct=1/cqm=0/deadzone=21, 11/fast_pskip=0/chroma_qp_offset=6/threads=5/lookahead_threads=1/sliced_threads=0/nr=0/decimate=1/interlaced=0/bluray_compat=0/constrained_intra=0/bframes=0/weightp=0/keyint=240/keyint_min=24/scenecut=0/intra_refresh=0/rc_lookahead=0/rc=cbr/mbtree=0/bitrate=6000/ratetol=1.0/qcomp=0.60/qpmin=0/qpmax=69/qpstep=4/vbv_maxrate=6000/vbv_bufsize=4285/nal_hrd=none/filler=0/ip_ratio=1.40/aq=0
    Default : Yes
    Forced : No
    Audio
    ID : 2
    Format : AC-3
    Format/Info : Audio Coding 3
    Commercial name : Dolby Digital
    Codec ID : A_AC3
    Duration : 1 h 14 min
    Bit rate mode : Constant
    Bit rate : 320 kb/s
    Channel(s) : 2 channels
    Channel layout : L R
    Sampling rate : 48.0 kHz
    Frame rate : 31.250 FPS (1536 SPF)
    Compression mode : Lossy
    Stream size : 171 MiB (5%)
    Language : Russian
    Service kind : Complete Main
    Default : Yes
    Forced : No

    Скриншоты для ознакомления



    Все одноименные релизы в Клубе
    Время раздачи: с 11: 00 до 2: 30 (до появления первых 3-5 скачавших)

    Онлайн видео Риф. Новые приключения


    Риф. Новые приключения / Go Fish (2019) WEBRip [H.264 / 1080p-LQ] (Online) торрент скачать бесплатно
    Рейтинг →
     (голосов: 1, оценка 3/5, голосовать можно 1 раз )

    Другие торренты по теме:

  • Новые приключения старой Кристин / The New Adventures of Old Christine (2009) HDTVRip [сезон 5, серии 1-5 из 21] ViruseProject (обновляемая) скачать через торрент бесплатно
  • Неизвестная версия: Новые приключения неуловимых (2008) SATRip скачать через торрент бесплатно
  • Новые приключения Ниро Вульфа и Арчи Гудвина (2004) DVDRip (4 фильма) [H.264] скачать через торрент бесплатно
  • Максим Алёшин | Новые приключения деревянной девочки, или Возвращение Буратины (2012) [FB2]
  • Смешарики 215 серий + Пин-код, Новые приключения, Смешалости 121 серий в 3D + Азбуки 54 серии [без заставок / титр (3D)] (2003-2015) DVDRip [обновляемая]
  • Новые приключения Билла и Теда / Bill & Teds Bogus Journey (1991) WEB-DLRip [H.264] скачать через торрент бесплатно
  • Новые приключения кота Леопольда. Новогодняя ёлка (2015) WEBRip [H.264 / 720p-LQ] скачать через торрент бесплатно
  • Новые приключения кота Леопольда. Новогодняя ёлка (2015) WEBRip [H.264 / 1080p-LQ] скачать через торрент бесплатно


    • Комментарии (0):

      Информация

      Информация

        Посетители, находящиеся в группе Гости, не могут оставлять комментарии в данной новости.

        ↓ Меню




        Популярное

        Роботы-пожарные / Fire Robo (2016) WEB-DLRip [H.264 / 720p-LQ] (сезон 1, серии 1-26 из 26) [Обновляемая]

        (скачиваний: 6)
        Лея Уотерс | Переключение на силу. Как научиться видеть в детях сильные стороны, чтобы помочь им расцвести (2019) [EPUB]

        (скачиваний: 5)
        Сергей Матвеев | Полный курс английского языка для лентяев (2016) [PDF]

        (скачиваний: 5)
        Жила-была царевна (2015-2019) WEB-DLRip [H.264 / 720p-LQ] (сезон 1, серии 1-18 из 26) [Обновляемая]

        (скачиваний: 4)
        Металионы / Metalions (2018-2019) WEB-DLRip [H.264 / 720p-LQ] (сезон 1, серии 1-52 из 52) [Обновляемая]

        (скачиваний: 4)
        Алексей Марков | Хулиганская экономика. Финансовые рынки для хулиганов и их родителей (2019) [EPUB]

        (скачиваний: 4)
        Серия книг | Образовательная манга (2010 - 2015) [PDF]

        (скачиваний: 4)
        Александр Нилл | Воспитание свободой. Школа Саммерхилл (2020) [EPUB]

        (скачиваний: 4)
        Мариэтта Чудакова | Рассказы про Россию. 1861—1922 (2020) [EPUB]

        (скачиваний: 3)
        Алена Зюрикова | Дзен в декрете, или Как не сойти с ума от счастья. Режим, сон, воспитание и хорошее настроение (2020) [EPUB]

        (скачиваний: 3)