Подписывайся на наш канал в Telegram https://t.me/torrentok и получи доступ к торрентам без ограничений!
.
Авторизация | Регистрация
bitok.xyz
Торрент скачать бесплатно Мультфильмы торрент скачать Promare | Промар [2019, Movie + 2 SP] BDRip 1080p raw торрент скачать бесплатно

    Promare | Промар [2019, Movie + 2 SP] BDRip 1080p raw торрент скачать бесплатно

    Дата: 25-02-2020, 05:00 | .torrent скачали: 0

    Promare | Промар [2019, Movie + 2 SP] BDRip 1080p rawЖанр: приключения
    Тип: полнометражный фильм
    Продолжительность: 111 мин.
    Количество серий: 1 фильм + 2 SP
    Выпуск: 24.05.2019
    Производство: студияTrigger/トリガー
    Автор оригинала: Накасима Кадзуки
    Режиссер: Имаиси Хироюки
    Ссылки: World-Art, ANN, AniDB, MyAnimeList

    Описание

    Перед нами оригинальное аниме от сценариста Кадзуки Накасимы и режиссёра Хироюки Имаиси, известных по нашумевшим работам Гуррен-Лаганн и Убей или умри. Нас ожидает их новое грандиозное произведение, которое станет некой смесью двух названных аниме.
    Сюжет поведает нам историю главного героя по имени Гало Тимос, ставшего новобранцем в пожарной бригаде, которая использует в работе механические устройства, известные как Матой-Тех.
    © Gerasya, Shikimori
    Качество видео: BDRip
    Видео: AVC (High@L4), 1920x1080 (16: 9), ~23.976 fps, ~10.2 Mbps
    Аудио: FLAC, 2 ch, 48 kHz, 24 bit, ~1577 kbps |Звук: Японский
    Язык озвучки: Японский
    Субтитры: Русские
    Перевод: PrometoSubs

    Скриншоты для ознакомления




    General
    Unique ID : 313625976190131833579307643711995568680 (0xEBF22A77A69685D9A9A2775C0BACE228)
    Complete name : Promare (BDRip 1920x1080 x264 FLAC)ReinForce Promare (BDRip 1920x1080 x264 FLAC).mkv
    Format : Matroska
    Format version : Version 4
    File size : 9.14 GiB
    Duration : 1 h 51 min
    Overall bit rate mode : Variable
    Overall bit rate : 11.8 Mb/s
    Encoded date : UTC 2020-02-09 08: 48: 44
    Writing application : mkvmerge v43.0.0 (\'The Quartermaster\') 64-bit
    Writing library : libebml v1.3.9 + libmatroska v1.5.2
    Video
    ID : 1
    Format : AVC
    Format/Info : Advanced Video Codec
    Format profile : High@L4
    Format settings : CABAC/4 Ref Frames
    Format settings, CABAC : Yes
    Format settings, Reference : 4 frames
    Codec ID : V_MPEG4/ISO/AVC
    Duration : 1 h 51 min
    Bit rate : 10.2 Mb/s
    Width : 1 920 pixels
    Height : 1 080 pixels
    Display aspect ratio : 16: 9
    Frame rate mode : Constant
    Frame rate : 23.976 (24000/1001) FPS
    Color space : YUV
    Chroma subsampling : 4: 2: 0
    Bit depth : 8 bits
    Scan type : Progressive
    Bits/(Pixel*Frame) : 0.205
    Stream size : 7.92 GiB (87%)
    Writing library : x264 core 157
    Encoding settings : cabac=1/ref=4/deblock=1: -2: -2/analyse=0x3: 0x113/me=umh/subme=9/psy=1/psy_rd=0.70: 0.00/mixed_ref=0/me_range=32/chroma_me=1/trellis=2/8x8dct=1/cqm=0/deadzone=21, 11/fast_pskip=1/chroma_qp_offset=-2/threads=8/lookahead_threads=1/sliced_threads=0/nr=0/decimate=1/interlaced=0/bluray_compat=0/constrained_intra=0/bframes=9/b_pyramid=2/b_adapt=2/b_bias=0/direct=3/weightb=1/open_gop=0/weightp=2/keyint=250/keyint_min=23/scenecut=40/intra_refresh=0/rc_lookahead=40/rc=crf/mbtree=1/crf=16.0/qcomp=0.70/qpmin=10/qpmax=20/qpstep=4/ip_ratio=1.40/aq=1: 1.00
    Default : Yes
    Forced : No
    Audio
    ID : 2
    Format : FLAC
    Format/Info : Free Lossless Audio Codec
    Codec ID : A_FLAC
    Duration : 1 h 51 min
    Bit rate mode : Variable
    Bit rate : 1 577 kb/s
    Channel(s) : 2 channels
    Channel layout : L R
    Sampling rate : 48.0 kHz
    Frame rate : 10.417 FPS (4608 SPF)
    Bit depth : 24 bits
    Compression mode : Lossless
    Stream size : 1.22 GiB (13%)
    Writing library : Lavf58.29.100
    Language : Japanese
    Default : Yes
    Forced : No
    Время раздачи: круглосуточно

    Онлайн видео Promare


    Promare | Промар [2019, Movie + 2 SP] BDRip 1080p raw торрент скачать бесплатно
    Рейтинг →
     (голосов: 1, оценка 3/5, голосовать можно 1 раз )

    Другие торренты по теме:

  • Promare | Промар [2019, Movie] BDRip 1080p raw+rus


    • Комментарии (0):

      Информация

      Информация

        Посетители, находящиеся в группе Гости, не могут оставлять комментарии в данной новости.

        ↓ Меню




        Популярное

        Жила-была царевна (2015-2019) WEB-DLRip [H.264 / 720p-LQ] (сезон 1, серии 1-18 из 26) [Обновляемая]

        (скачиваний: 3)
        Сергей Матвеев | Полный курс английского языка для лентяев (2016) [PDF]

        (скачиваний: 3)
        Серия книг | Образовательная манга (2010 - 2015) [PDF]

        (скачиваний: 3)
        Gekijouban KanColle | Kantai Collection Movie | Fleet Girls Collection: Movie Sequence| Коллекционная флотилия на большом экране [2016, Movie] BDrip 720p 10bit raw

        (скачиваний: 3)
        Свинка Пеппа / Peppa Pig (2004-2012) SATRip (1-4 сезоны: 208 серий из 209) скачать через торрент бесплатно

        (скачиваний: 2)
        Соман Чайнани | Цикл: «Школа Добра и Зла» [5 книг] (2018-2019) [FB2]

        (скачиваний: 1)
        Ева Ибботсон | Агентство «Фантом в каждый дом» (2018) [FB2, EPUB]

        (скачиваний: 1)
        Teito Monogatari / Doomed Megalopolis / Столичная история [1991, OVA, 4 ep.] DVDRip raw +eng

        (скачиваний: 1)
        Эндрю Лумис | Искусное рисование (2015) [PDF]

        (скачиваний: 1)
        Джим Роджерс | Сделайте ваших детей успешными (2013) [PDF, EPUB] скачать через торрент бесплатно

        (скачиваний: 1)