Подписывайся на наш канал в Telegram https://t.me/torrentok и получи доступ к торрентам без ограничений!
.
Авторизация | Регистрация
bitok.xyz
Торрент скачать бесплатно Мультфильмы торрент скачать Kimi to, Nami ni Noretara | Ride Your Wave | Оседлать волну с тобой [2019, Movie] BDRip 1080 HEVC 10bit raw торрент скачать бесплатно


    Kimi to, Nami ni Noretara | Ride Your Wave | Оседлать волну с тобой [2019, Movie] BDRip 1080 HEVC 10bit raw торрент скачать бесплатно

    Дата: 25-02-2020, 05:00 | .torrent скачали: 0

    Kimi to, Nami ni Noretara | Ride Your Wave | Оседлать волну с тобой [2019, Movie] BDRip 1080 HEVC 10bit rawЖанр: романтика, драма
    Тип: полнометражный фильм
    Продолжительность: 95 мин.
    Выпуск: 21.06.2019
    Производство: студияScience Saru/サイエンスSaru
    Режиссер: Юаса Масааки
    Ссылки: World-Art, ANN, AniDB, MyAnimeList

    Описание

    Поступив в университет, Хинако переезжает в прибрежный городок. Она очень любит сёрфинг и на волнах чувствует себя уверенно, однако неопределённость будущего всё ещё беспокоит её. Когда разбушевавшийся пожар сеет хаос в городке, Хинако знакомится с молодым пожарным Минато. Пока они занимаются сёрфингом и проводят много времени вместе, девушка начинает чувствовать, что её тянет к кому-то вроде Минато, кто посвятил свою жизнь помощи другим. В свою очередь Хинако тоже занимает особое место в сердце юноши.
    Качество видео: BDRip
    Видео: HEVC (Main 10@L4@Main) 10 bit, 1920x1080 (16: 9), ~23.976 fps, ~12.7 Mbps
    Аудио: FLAC, 2 ch, 48 kHz, 24 bit, ~1448 kbps |Звук: Японский
    Язык озвучки: Японский
    Субтитры: Русские
    Перевод: 1) laci; 2) YakuSub Studio

    Скриншоты для ознакомления




    General
    Unique ID : 148701192815245450772736563018561247788 (0x6FDECED925989C1CBEF648637FD85A2C)
    Complete name : Kimi to, Nami ni Noretara BDRip 1920x1080 HEVC FLACBeatrice-Raws Kimi to, Nami ni Noretara BDRip 1920x1080 HEVC FLAC.mkv
    Format : Matroska
    Format version : Version 4
    File size : 9.40 GiB
    Duration : 1 h 35 min
    Overall bit rate mode : Variable
    Overall bit rate : 14.1 Mb/s
    Encoded date : UTC 2019-12-31 16: 50: 08
    Writing application : mkvmerge v41.0.0 (\'Smarra\') 64-bit
    Writing library : libebml v1.3.9 + libmatroska v1.5.2
    Video
    ID : 1
    Format : HEVC
    Format/Info : High Efficiency Video Coding
    Format profile : Main 10@L4@Main
    Codec ID : V_MPEGH/ISO/HEVC
    Duration : 1 h 35 min
    Bit rate : 12.7 Mb/s
    Width : 1 920 pixels
    Height : 1 080 pixels
    Display aspect ratio : 16: 9
    Frame rate mode : Constant
    Frame rate : 23.976 (24000/1001) FPS
    Color space : YUV
    Chroma subsampling : 4: 2: 0
    Bit depth : 10 bits
    Bits/(Pixel*Frame) : 0.255
    Stream size : 8.43 GiB (90%)
    Title : BDrip by Jensen
    Writing library : x265 3.2.1+7-24c60698a421: DJATOM\'s ModWindowsGCC 9.2.164 bit 10bit
    Encoding settings : cpuid=1049583/frame-threads=16/numa-pools=24, 24/wpp/pmode/pme/no-psnr/no-ssim/log-level=2/csv/csv-log-level=2/input-csp=1/input-res=1920x1080/interlace=0/total-frames=137112/level-idc=0/high-tier=1/uhd-bd=0/ref=4/no-allow-non-conformance/no-repeat-t_heads/annexb/no-aud/no-hrd/info/hash=0/no-temporal-layers/open-gop/min-keyint=23/keyint=240/gop-lookahead=0/bframes=9/b-adapt=2/b-pyramid/bframe-bias=0/rc-lookahead=20/lookahead-slices=6/scenecut=40/radl=0/no-splice/no-intra-refresh/ctu=64/min-cu-size=8/no-rect/no-amp/max-tu-size=32/tu-inter-depth=2/tu-intra-depth=2/limit-tu=0/rdoq-level=2/dynamic-rd=0.00/no-ssim-rd/signhide/no-tskip/nr-intra=0/nr-inter=0/no-constrained-intra/strong-intra-smoothing/max-merge=3/limit-refs=1/limit-modes/me=2/subme=5/merange=48/temporal-mvp/no-hme/weightp/weightb/no-analyze-src-pics/deblock=1: -1/no-sao/no-sao-non-deblock/rd=4/selective-sao=0/no-early-skip/no-rskip/no-fast-intra/no-tskip-fast/no-cu-lossless/b-intra/no-splitrd-skip/rdpenalty=0/psy-rd=2.00/psy-rdoq=4.00/no-rd-refine/no-lossless/cbqpoffs=-2/crqpoffs=-2/rc=crf/crf=14.2/qcomp=0.72/qpstep=4/stats-write=0/stats-read=0/ipratio=1.40/pbratio=1.30/aq-mode=4/aq-strength=0.86/no-cutree/zone-count=0/no-strict-cbr/qg-size=32/no-rc-grain/qpmax=69/qpmin=0/no-const-vbv/sar=1/overscan=0/videoformat=5/range=0/colorprim=1/transfer=1/colormatrix=1/chromaloc=0/display-window=0/cll=0, 0/min-luma=0/max-luma=1023/log2-max-poc-lsb=8/vui-timing-info/vui-hrd-info/slices=1/no-opt-qp-pps/no-opt-ref-list-length-pps/no-multi-pass-opt-rps/scenecut-bias=0.05/no-opt-cu-delta-qp/no-aq-motion/no-hdr/no-hdr-opt/no-dhdr10-opt/no-idr-recovery-sei/analysis-reuse-level=5/scale-factor=0/refine-intra=0/refine-inter=0/refine-mv=1/refine-ctu-distortion=0/no-limit-sao/ctu-info=0/no-lowpass-dct/refine-analysis-type=0/copy-pic=1/max-ausize-factor=1.0/no-dynamic-refine/no-single-sei/hevc-aq/no-svt/no-field/qp-adaptation-range=4.00
    Language : Japanese
    Default : Yes
    Forced : No
    Color range : Limited
    Color primaries : BT.709
    Transfer characteristics : BT.709
    Matrix coefficients : BT.709
    Audio
    ID : 2
    Format : FLAC
    Format/Info : Free Lossless Audio Codec
    Codec ID : A_FLAC
    Duration : 1 h 35 min
    Bit rate mode : Variable
    Bit rate : 1 448 kb/s
    Channel(s) : 2 channels
    Channel layout : L R
    Sampling rate : 48.0 kHz
    Frame rate : 11.719 FPS (4096 SPF)
    Bit depth : 24 bits
    Compression mode : Lossless
    Stream size : 987 MiB (10%)
    Writing library : libFLAC 1.3.3 (UTC 2019-08-04)
    Language : Japanese
    Default : Yes
    Forced : No
    Menu
    00: 00: 00.000 : en: Avant
    00: 12: 03.640 : en: Part A
    00: 31: 22.005 : en: Part B
    00: 33: 20.665 : en: Part C
    00: 52: 44.328 : en: Part D
    01: 00: 44.933 : en: Part E
    01: 13: 37.622 : en: Part F
    01: 28: 15.123 : en: END
    Время раздачи: круглосуточно

    Онлайн видео Kimi to, Nami ni Noretara


    Kimi to, Nami ni Noretara | Ride Your Wave | Оседлать волну с тобой [2019, Movie] BDRip 1080 HEVC 10bit raw торрент скачать бесплатно
    Рейтинг →
     (голосов: 1, оценка 4/5, голосовать можно 1 раз )

    Другие торренты по теме:

  • Kimi to, Nami ni Noretara | Ride Your Wave | Оседлав волну с тобой [2019, Movie] WEB-DL 1080p rus


    • Комментарии (0):

      Информация

      Информация

        Посетители, находящиеся в группе Гости, не могут оставлять комментарии в данной новости.

        ↓ Меню




        Популярное