ВАЖНО! Сайт скоро заблокируют! Подписывайся на наш канал в Telegram https://t.me/torrentok и получи доступ к торрентам без ограничений!
.
Авторизация | Регистрация
bitok.xyz
Торрент скачать бесплатно Мультфильмы торрент скачать Расти-механик / Rusty Rivets (2016) WEB-DL [H.264 / 1080p-LQ] (Сезон 2, Серии 1-23 из 26) торрент скачать бесплатно


    Расти-механик / Rusty Rivets (2016) WEB-DL [H.264 / 1080p-LQ] (Сезон 2, Серии 1-23 из 26) торрент скачать бесплатно

    Дата: 26-02-2020, 05:00 | .torrent скачали: 0

    Расти-механик / Rusty Rivets (2016) WEB-DL [H.264 / 1080p-LQ] (Сезон 2, Серии 1-23 из 26)Производство: Канада, Arc Productions, Nickelodeon Productions, Spin Master Studios
    Жанр: мультфильм, фантастика, комедия, семейный
    Режиссер: Пол Х. Браун, Рик Маршалл, Брэд Фергюсон

    Описание

    Изобретатель Расти постоянно занят разработками конструкций, проводит множество опытов, выпутывается из непредсказуемых ситуаций и использует знания и смекалку. Вместе со своей отважной командой Расти готов сконструировать все что угодно, используя самые невероятные подручные средства.

    Релиз от: PATRON_
    Продолжительность: ~00: 22: 12 серия
    Качество видео: WEB-DL
    Перевод: Дублированный
    Субтитры: отсутствуют
    Видео: AVC/H.264, 1920x1080, ~5120 kbps
    Аудио: AAC, 2 ch, 256 kbps
    General
    Complete name : Расти-Механик 2 сезон любимого сериала21 серия (Расти и мыльная ловушка Расти и сбежавшая субмарина).mp4
    Format : MPEG-4
    Format profile : Base Media
    Codec ID : isom (isom/iso2/avc1/mp41)
    File size : 854 MiB
    Duration : 22 min 12 s
    Overall bit rate : 5 380 kb/s
    Writing application : Lavf58.20.100
    Video
    ID : 1
    Format : AVC
    Format/Info : Advanced Video Codec
    Format profile : High@L4
    Format settings : CABAC/4 Ref Frames
    Format settings, CABAC : Yes
    Format settings, Reference : 4 frames
    Codec ID : avc1
    Codec ID/Info : Advanced Video Coding
    Duration : 22 min 12 s
    Bit rate : 5 120 kb/s
    Width : 1 920 pixels
    Height : 1 080 pixels
    Display aspect ratio : 16: 9
    Frame rate mode : Constant
    Frame rate : 25.000 FPS
    Color space : YUV
    Chroma subsampling : 4: 2: 0
    Bit depth : 8 bits
    Scan type : Progressive
    Bits/(Pixel*Frame) : 0.099
    Stream size : 813 MiB (95%)
    Writing library : x264 core 148
    Encoding settings : cabac=1/ref=3/deblock=1: 0: 0/analyse=0x3: 0x113/me=hex/subme=7/psy=1/psy_rd=1.00: 0.00/mixed_ref=1/me_range=16/chroma_me=1/trellis=1/8x8dct=1/cqm=0/deadzone=21, 11/fast_pskip=1/chroma_qp_offset=-2/threads=34/lookahead_threads=5/sliced_threads=0/nr=0/decimate=1/interlaced=0/bluray_compat=0/constrained_intra=0/bframes=6/b_pyramid=2/b_adapt=1/b_bias=0/direct=1/weightb=1/open_gop=0/weightp=2/keyint=50/keyint_min=26/scenecut=0/intra_refresh=0/rc_lookahead=40/rc=2pass/mbtree=1/bitrate=5120/ratetol=1.0/qcomp=0.60/qpmin=0/qpmax=69/qpstep=4/cplxblur=20.0/qblur=0.5/vbv_maxrate=7680/vbv_bufsize=20480/nal_hrd=none/filler=0/ip_ratio=1.40/aq=1: 1.00
    Tagged date : UTC 2019-08-29 17: 31: 44
    Codec configuration box : avcC
    Audio
    ID : 2
    Format : AAC LC
    Format/Info : Advanced Audio Codec Low Complexity
    Codec ID : mp4a-40-2
    Duration : 22 min 12 s
    Source duration : 22 min 12 s
    Bit rate mode : Constant
    Bit rate : 256 kb/s
    Channel(s) : 2 channels
    Channel layout : L R
    Sampling rate : 48.0 kHz
    Frame rate : 46.875 FPS (1024 SPF)
    Compression mode : Lossy
    Stream size : 40.7 MiB (5%)
    Source stream size : 40.7 MiB (5%)
    Language : Russian
    Default : Yes
    Alternate group : 1
    Tagged date : UTC 2019-08-29 17: 31: 44
    Other
    ID : 3
    Type : Time code
    Format : QuickTime TC
    Duration : 22 min 12 s
    Frame rate : 25.000 FPS
    Time code of first frame : 00: 00: 00: 00
    Time code, striped : Yes
    Default : No
    Tagged date : UTC 2019-08-29 17: 31: 44

    Скриншоты для ознакомления



    Все одноименные релизы в Клубе
    Время раздачи: Пн-Чт с 19: 00 до 23: 00 (до появления первых 3-5 скачавших) (до появления первых 3-5 скачавших)

    Онлайн видео Расти-механик


    Расти-механик / Rusty Rivets (2016) WEB-DL [H.264 / 1080p-LQ] (Сезон 2, Серии 1-23 из 26) торрент скачать бесплатно
    Рейтинг →
     (голосов: 1, оценка 3/5, голосовать можно 1 раз )

    Другие торренты по теме:

  • Расти-механик / Rusty Rivets (2016) WEB-DL [H.264] (Серии 1-23)


    • Комментарии (0):

      Информация

      Информация

        Посетители, находящиеся в группе Гости, не могут оставлять комментарии в данной новости.

        ↓ Меню




        Популярное

        Металионы / Metalions (2018-2019) WEB-DLRip [H.264 / 720p-LQ] (сезон 1, серии 1-52 из 52) [Обновляемая]

        (скачиваний: 11)
        Фиксики против Кработов (2019) WEB-DL [H.264 / 1080p-LQ]

        (скачиваний: 10)
        Роботы-пожарные / Fire Robo (2016) WEB-DLRip [H.264 / 720p-LQ] (сезон 1, серии 1-26 из 26) [Обновляемая]

        (скачиваний: 8)
        Фиксики против Кработов (2019) WEB-DLRip

        (скачиваний: 7)
        Жила-была царевна (2015-2019) WEB-DLRip [H.264 / 720p-LQ] (сезон 1, серии 1-18 из 26) [Обновляемая]

        (скачиваний: 7)
        Лея Уотерс | Переключение на силу. Как научиться видеть в детях сильные стороны, чтобы помочь им расцвести (2019) [EPUB]

        (скачиваний: 5)
        Kaze no Na wa Amnesia / A Wind Named Amnesia / Ветер амнезии [1990, MV] DVDRip raw

        (скачиваний: 5)
        Канакина В. П., Горецкий В. Г. Электронное приложение к учебнику «Русский язык», 2 класс (2012) [ISO] скачать через торрент бесплатно

        (скачиваний: 5)
        Александр Нилл | Воспитание свободой. Школа Саммерхилл (2020) [EPUB]

        (скачиваний: 5)
        Роберт Кийосаки | Богатый папа, бедный папа для подростков (2014) [PDF, FB2]

        (скачиваний: 5)