Подписывайся на наш канал в Telegram https://t.me/torrentok и получи доступ к торрентам без ограничений!
.
Авторизация | Регистрация
bitok.xyz
Торрент скачать бесплатно Мультфильмы торрент скачать Кипо и Эра Чудесных Зверей / Kipo and the Age of Wonderbeasts (2020) WEB-DL [H.264 / 720p-LQ] (сезон 1, серия 1 из 10) NewStation торрент скачать бесплатно


    Кипо и Эра Чудесных Зверей / Kipo and the Age of Wonderbeasts (2020) WEB-DL [H.264 / 720p-LQ] (сезон 1, серия 1 из 10) NewStation торрент скачать бесплатно

    Дата: 26-02-2020, 05:00 | .torrent скачали: 0

    Кипо и Эра Чудесных Зверей / Kipo and the Age of Wonderbeasts (2020) WEB-DL [H.264 / 720p-LQ] (сезон 1, серия 1 из 10) NewStationПроизводство: США, DreamWorks Animation Television
    Жанр: Фэнтези, Приключения
    Режиссер: Чейз Конли

    Описание

    Девочка по имени Кипо прожила всю жизнь в подземном убежище, но однажды она выбирается на поверхность и вместе с группой выживших отправляется в путешествие по постапокалиптической Земле.

    Релиз от: NewStation
    Продолжительность: ~00: 24: 00 серия
    Качество видео: WEB-DL
    Перевод: Многоголосый профессиональный (NewStation)
    Субтитры: русские (MWT), английские, испанские, норвежские, индонезийские, греческие, румынские, немецкие, тайские, японские, итальянские, португальские, китайские, финские, шведские, ивритские, арабские, голландские, датские, польские, турецкие, корейские, французские
    Видео: AVC/H.264, 1280x720, ~1330 Kbps
    Аудио #1: EAC-3, 6 ch, 640 kbps, - Русский (NewStation)
    Аудио #2: EAC-3, 6 ch, 640 kbps, - Английский01 Burrow Girl
    Общее
    Уникальный идентификатор : 268501021037393197176486673429354033141 (0xC9FF6A682218466C4C35ACD22524AFF5)
    Полное имя : F: NewStationKipo.and.the.Age.of.Wonderbeasts.S01.WEB-DL.720p.NewStationKipo.and.the.Age.of.Wonderbeasts.S01E01.WEB-DL.720p.NewStation.mkv
    Формат : Matroska
    Версия формата : Version 4/Version 2
    Размер файла : 445 Мбайт
    Продолжительность : 24 м. 10 с.
    Режим общего битрейта : Переменный
    Общий поток : 2576 Кбит/сек
    Дата кодирования : UTC 2020-02-24 21: 59: 56
    Программа кодирования : mkvmerge v28.1.0 (\'Morning Child\') 64-bit
    Библиотека кодирования : libebml v1.3.6 + libmatroska v1.4.9
    Видео
    Идентификатор : 1
    Формат : AVC
    Формат/Информация : Advanced Video Codec
    Профиль формата : Main@L3.1
    Настройки формата : CABAC/3 Ref Frames
    Параметр CABAC формата : Да
    Параметр RefFrames формата : 3 кадра
    Идентификатор кодека : V_MPEG4/ISO/AVC
    Продолжительность : 24 м. 10 с.
    Вид битрейта : Переменный
    Битрейт : 1330 Кбит/сек
    Максимальный битрейт : 1995 Кбит/сек
    Ширина : 1280 пикселей
    Высота : 720 пикселей
    Соотношение сторон : 16: 9
    Режим частоты кадров : Постоянный
    Частота кадров : 23, 976 (24000/1001) кадра/сек
    Цветовое пространство : YUV
    Субдискретизация насыщенности : 4: 2: 0
    Битовая глубина : 8 бит
    Тип развёртки : Прогрессивная
    Бит/(Пиксели*Кадры) : 0.060
    Размер потока : 223 Мбайт (50%)
    Библиотека кодирования : x264 core 148 r2715 7e75228
    Настройки программы : cabac=1/ref=3/deblock=1: 0: 0/analyse=0x1: 0x111/me=umh/subme=10/psy=1/psy_rd=1.00: 0.00/mixed_ref=1/me_range=24/chroma_me=1/trellis=2/8x8dct=0/cqm=0/deadzone=21, 11/fast_pskip=1/chroma_qp_offset=-2/threads=8/lookahead_threads=1/sliced_threads=0/nr=0/decimate=1/interlaced=0/bluray_compat=0/stitchable=1/constrained_intra=0/bframes=2/b_pyramid=0/b_adapt=2/b_bias=0/direct=3/weightb=1/open_gop=0/weightp=2/keyint=48/keyint_min=25/scenecut=0/intra_refresh=0/rc_lookahead=48/rc=2pass/mbtree=1/bitrate=1330/ratetol=1.0/qcomp=0.50/qpmin=6/qpmax=51/qpstep=4/cplxblur=20.0/qblur=0.5/vbv_maxrate=1995/vbv_bufsize=2660/nal_hrd=vbr/filler=0/ip_ratio=1.40/aq=1: 1.00
    Default : Да
    Forced : Нет
    Аудио #1
    Идентификатор : 2
    Формат : E-AC-3
    Формат/Информация : Enhanced Audio Coding 3
    Идентификатор кодека : A_EAC3
    Продолжительность : 24 м. 10 с.
    Вид битрейта : Постоянный
    Битрейт : 640 Кбит/сек
    Каналы : 6 каналов
    Расположение каналов : Front: L C R, Side: L R, LFE
    Частота : 48, 0 КГц
    Частота кадров : 187, 500 кадров/сек (256 SPF)
    Метод сжатия : С потерями
    Размер потока : 111 Мбайт (25%)
    Заголовок : NewStation
    Язык : Russian
    ServiceKind/String : Complete Main
    Default : Да
    Forced : Нет
    Аудио #2
    Идентификатор : 3
    Формат : E-AC-3
    Формат/Информация : Enhanced Audio Coding 3
    Идентификатор кодека : A_EAC3
    Продолжительность : 24 м. 10 с.
    Вид битрейта : Постоянный
    Битрейт : 640 Кбит/сек
    Каналы : 6 каналов
    Расположение каналов : Front: L C R, Side: L R, LFE
    Частота : 48, 0 КГц
    Частота кадров : 187, 500 кадров/сек (256 SPF)
    Метод сжатия : С потерями
    Размер потока : 111 Мбайт (25%)
    Язык : English
    ServiceKind/String : Complete Main
    Default : Нет
    Forced : Нет
    Текст #1
    Идентификатор : 4
    Формат : ASS
    Идентификатор кодека : S_TEXT/ASS
    Идентификатор кодека/Информация : Advanced Sub Station Alpha
    Продолжительность : 22 м. 31 с.
    Битрейт : 169 бит/сек
    ElementCount : 319
    Метод сжатия : Без потерь
    Размер потока : 28, 0 Кбайт (0%)
    Заголовок : MWT
    Язык : Russian
    Default : Нет
    Forced : Нет
    Текст #2
    Идентификатор : 5
    Формат : UTF-8
    Идентификатор кодека : S_TEXT/UTF8
    Идентификатор кодека/Информация : UTF-8 Plain Text
    Продолжительность : 22 м. 27 с.
    Битрейт : 72 бит/сек
    ElementCount : 413
    Размер потока : 11, 9 Кбайт (0%)
    Заголовок : SDH
    Язык : English
    Default : Нет
    Forced : Нет
    Текст #3
    Идентификатор : 6
    Формат : UTF-8
    Идентификатор кодека : S_TEXT/UTF8
    Идентификатор кодека/Информация : UTF-8 Plain Text
    Продолжительность : 23 м. 6 с.
    Битрейт : 92 бит/сек
    ElementCount : 306
    Размер потока : 15, 7 Кбайт (0%)
    Язык : Arabic
    Default : Нет
    Forced : Нет
    Текст #4
    Идентификатор : 7
    Формат : UTF-8
    Идентификатор кодека : S_TEXT/UTF8
    Идентификатор кодека/Информация : UTF-8 Plain Text
    Продолжительность : 23 м. 6 с.
    Битрейт : 55 бит/сек
    ElementCount : 306
    Размер потока : 9, 44 Кбайт (0%)
    Язык : Danish
    Default : Нет
    Forced : Нет
    Текст #5
    Идентификатор : 8
    Формат : UTF-8
    Идентификатор кодека : S_TEXT/UTF8
    Идентификатор кодека/Информация : UTF-8 Plain Text
    Продолжительность : 23 м. 6 с.
    Битрейт : 58 бит/сек
    ElementCount : 306
    Размер потока : 9, 83 Кбайт (0%)
    Язык : German
    Default : Нет
    Forced : Нет
    Текст #6
    Идентификатор : 9
    Формат : UTF-8
    Идентификатор кодека : S_TEXT/UTF8
    Идентификатор кодека/Информация : UTF-8 Plain Text
    Продолжительность : 23 м. 6 с.
    Битрейт : 104 бит/сек
    ElementCount : 305
    Размер потока : 17, 6 Кбайт (0%)
    Язык : Greek
    Default : Нет
    Forced : Нет
    Текст #7
    Идентификатор : 10
    Формат : UTF-8
    Идентификатор кодека : S_TEXT/UTF8
    Идентификатор кодека/Информация : UTF-8 Plain Text
    Продолжительность : 23 м. 6 с.
    Битрейт : 61 бит/сек
    ElementCount : 308
    Размер потока : 10, 4 Кбайт (0%)
    Заголовок : Latin American
    Язык : Spanish
    Default : Нет
    Forced : Нет
    Текст #8
    Идентификатор : 11
    Формат : UTF-8
    Идентификатор кодека : S_TEXT/UTF8
    Идентификатор кодека/Информация : UTF-8 Plain Text
    Продолжительность : 23 м. 6 с.
    Битрейт : 56 бит/сек
    ElementCount : 306
    Размер потока : 9, 48 Кбайт (0%)
    Заголовок : European
    Язык : Spanish
    Default : Нет
    Forced : Нет
    Текст #9
    Идентификатор : 12
    Формат : UTF-8
    Идентификатор кодека : S_TEXT/UTF8
    Идентификатор кодека/Информация : UTF-8 Plain Text
    Продолжительность : 23 м. 6 с.
    Битрейт : 50 бит/сек
    ElementCount : 305
    Размер потока : 8, 57 Кбайт (0%)
    Язык : Finnish
    Default : Нет
    Forced : Нет
    Текст #10
    Идентификатор : 13
    Формат : UTF-8
    Идентификатор кодека : S_TEXT/UTF8
    Идентификатор кодека/Информация : UTF-8 Plain Text
    Продолжительность : 23 м. 6 с.
    Битрейт : 52 бит/сек
    ElementCount : 304
    Размер потока : 8, 92 Кбайт (0%)
    Язык : French
    Default : Нет
    Forced : Нет
    Текст #11
    Идентификатор : 14
    Формат : UTF-8
    Идентификатор кодека : S_TEXT/UTF8
    Идентификатор кодека/Информация : UTF-8 Plain Text
    Продолжительность : 23 м. 6 с.
    Битрейт : 80 бит/сек
    ElementCount : 305
    Размер потока : 13, 7 Кбайт (0%)
    Язык : Hebrew
    Default : Нет
    Forced : Нет
    Текст #12
    Идентификатор : 15
    Формат : UTF-8
    Идентификатор кодека : S_TEXT/UTF8
    Идентификатор кодека/Информация : UTF-8 Plain Text
    Продолжительность : 23 м. 6 с.
    Битрейт : 57 бит/сек
    ElementCount : 306
    Размер потока : 9, 72 Кбайт (0%)
    Язык : Indonesian
    Default : Нет
    Forced : Нет
    Текст #13
    Идентификатор : 16
    Формат : UTF-8
    Идентификатор кодека : S_TEXT/UTF8
    Идентификатор кодека/Информация : UTF-8 Plain Text
    Продолжительность : 23 м. 6 с.
    Битрейт : 56 бит/сек
    ElementCount : 305
    Размер потока : 9, 49 Кбайт (0%)
    Язык : Italian
    Default : Нет
    Forced : Нет
    Текст #14
    Идентификатор : 17
    Формат : UTF-8
    Идентификатор кодека : S_TEXT/UTF8
    Идентификатор кодека/Информация : UTF-8 Plain Text
    Продолжительность : 22 м. 46 с.
    Битрейт : 58 бит/сек
    ElementCount : 272
    Размер потока : 9, 77 Кбайт (0%)
    Язык : Japanese
    Default : Нет
    Forced : Нет
    Текст #15
    Идентификатор : 18
    Формат : UTF-8
    Идентификатор кодека : S_TEXT/UTF8
    Идентификатор кодека/Информация : UTF-8 Plain Text
    Продолжительность : 23 м. 6 с.
    Битрейт : 65 бит/сек
    ElementCount : 305
    Размер потока : 11, 0 Кбайт (0%)
    Язык : Korean
    Default : Нет
    Forced : Нет
    Текст #16
    Идентификатор : 19
    Формат : UTF-8
    Идентификатор кодека : S_TEXT/UTF8
    Идентификатор кодека/Информация : UTF-8 Plain Text
    Продолжительность : 23 м. 6 с.
    Битрейт : 53 бит/сек
    ElementCount : 306
    Размер потока : 9, 05 Кбайт (0%)
    Язык : Norwegian Bokmal
    Default : Нет
    Forced : Нет
    Текст #17
    Идентификатор : 20
    Формат : UTF-8
    Идентификатор кодека : S_TEXT/UTF8
    Идентификатор кодека/Информация : UTF-8 Plain Text
    Продолжительность : 23 м. 6 с.
    Битрейт : 54 бит/сек
    ElementCount : 303
    Размер потока : 9, 19 Кбайт (0%)
    Язык : Dutch
    Default : Нет
    Forced : Нет
    Текст #18
    Идентификатор : 21
    Формат : UTF-8
    Идентификатор кодека : S_TEXT/UTF8
    Идентификатор кодека/Информация : UTF-8 Plain Text
    Продолжительность : 23 м. 6 с.
    Битрейт : 53 бит/сек
    ElementCount : 306
    Размер потока : 9, 08 Кбайт (0%)
    Язык : Polish
    Default : Нет
    Forced : Нет
    Текст #19
    Идентификатор : 22
    Формат : UTF-8
    Идентификатор кодека : S_TEXT/UTF8
    Идентификатор кодека/Информация : UTF-8 Plain Text
    Продолжительность : 23 м. 6 с.
    Битрейт : 55 бит/сек
    ElementCount : 306
    Размер потока : 9, 33 Кбайт (0%)
    Заголовок : European
    Язык : Portuguese
    Default : Нет
    Forced : Нет
    Текст #20
    Идентификатор : 23
    Формат : UTF-8
    Идентификатор кодека : S_TEXT/UTF8
    Идентификатор кодека/Информация : UTF-8 Plain Text
    Продолжительность : 23 м. 6 с.
    Битрейт : 58 бит/сек
    ElementCount : 305
    Размер потока : 9, 88 Кбайт (0%)
    Заголовок : Brazilian
    Язык : Portuguese
    Default : Нет
    Forced : Нет
    Текст #21
    Идентификатор : 24
    Формат : UTF-8
    Идентификатор кодека : S_TEXT/UTF8
    Идентификатор кодека/Информация : UTF-8 Plain Text
    Продолжительность : 23 м. 6 с.
    Битрейт : 62 бит/сек
    ElementCount : 305
    Размер потока : 10, 6 Кбайт (0%)
    Язык : Romanian
    Default : Нет
    Forced : Нет
    Текст #22
    Идентификатор : 25
    Формат : UTF-8
    Идентификатор кодека : S_TEXT/UTF8
    Идентификатор кодека/Информация : UTF-8 Plain Text
    Продолжительность : 23 м. 6 с.
    Битрейт : 57 бит/сек
    ElementCount : 306
    Размер потока : 9, 68 Кбайт (0%)
    Язык : Swedish
    Default : Нет
    Forced : Нет
    Текст #23
    Идентификатор : 26
    Формат : UTF-8
    Идентификатор кодека : S_TEXT/UTF8
    Идентификатор кодека/Информация : UTF-8 Plain Text
    Продолжительность : 23 м. 6 с.
    Битрейт : 140 бит/сек
    ElementCount : 305
    Размер потока : 23, 8 Кбайт (0%)
    Язык : Thai
    Default : Нет
    Forced : Нет
    Текст #24
    Идентификатор : 27
    Формат : UTF-8
    Идентификатор кодека : S_TEXT/UTF8
    Идентификатор кодека/Информация : UTF-8 Plain Text
    Продолжительность : 23 м. 6 с.
    Битрейт : 54 бит/сек
    ElementCount : 306
    Размер потока : 9, 23 Кбайт (0%)
    Язык : Turkish
    Default : Нет
    Forced : Нет
    Текст #25
    Идентификатор : 28
    Формат : UTF-8
    Идентификатор кодека : S_TEXT/UTF8
    Идентификатор кодека/Информация : UTF-8 Plain Text
    Продолжительность : 23 м. 6 с.
    Битрейт : 87 бит/сек
    ElementCount : 306
    Размер потока : 14, 8 Кбайт (0%)
    Язык : Vietnamese
    Default : Нет
    Forced : Нет
    Текст #26
    Идентификатор : 29
    Формат : UTF-8
    Идентификатор кодека : S_TEXT/UTF8
    Идентификатор кодека/Информация : UTF-8 Plain Text
    Продолжительность : 23 м. 6 с.
    Битрейт : 57 бит/сек
    ElementCount : 306
    Размер потока : 9, 79 Кбайт (0%)
    Заголовок : Simplified
    Язык : Chinese
    Default : Нет
    Forced : Нет
    Текст #27
    Идентификатор : 30
    Формат : UTF-8
    Идентификатор кодека : S_TEXT/UTF8
    Идентификатор кодека/Информация : UTF-8 Plain Text
    Продолжительность : 23 м. 6 с.
    Битрейт : 58 бит/сек
    ElementCount : 306
    Размер потока : 9, 93 Кбайт (0%)
    Заголовок : Traditional
    Язык : Chinese
    Default : Нет
    Forced : Нет

    Скриншоты для ознакомления



    Все одноименные релизы в Клубе
    Время раздачи: 24/7 (круглосуточно) (до появления первых 3-5 скачавших)

    Онлайн видео Кипо и Эра Чудесных Зверей


    Кипо и Эра Чудесных Зверей / Kipo and the Age of Wonderbeasts (2020) WEB-DL [H.264 / 720p-LQ] (сезон 1, серия 1 из 10) NewStation торрент скачать бесплатно
    Рейтинг →
     (голосов: 1, оценка 5/5, голосовать можно 1 раз )

    Другие торренты по теме:

  • Кипо и Эра Чудесных Зверей / Kipo and the Age of Wonderbeasts (2020) WEB-DL [H.264 / 1080p-LQ] (сезон 1, серия 1 из 10) NewStation
  • Кипо и Эра Чудесных Зверей / Kipo and the Age of Wonderbeasts (2020) WEBRip (сезон 1, серия 1 из 10) NewStation


    • Комментарии (0):

      Информация

      Информация

        Посетители, находящиеся в группе Гости, не могут оставлять комментарии в данной новости.

        ↓ Меню




        Популярное

        Фиксики против Кработов (2019) WEB-DLRip

        (скачиваний: 134)
        Рик и Морти / Rick and Morty (2015) WEB-DL [H.264 / 1080p] (Сезон 2, серии 1-10 из 10) Сыендук [EN / RU Sub] скачать через торрент бесплатно

        (скачиваний: 109)
        М.Ю. Демидова | ЕГЭ-2020. Физика. 30 типовых вариантов (2020) [PDF]

        (скачиваний: 80)
        Малышарики (2015-2019) WEB-DL [H.264 / 1080p-LQ] (серии 1-154 из 208) [Обновляемая]

        (скачиваний: 68)
        Рик и Морти / Rick and Morty (2013) BDRip [H.264 / 720p-LQ] (сезон 1, серии 1-11 из 11) Сыендук

        (скачиваний: 65)
        Рик и Морти / Rick and Morty (2013) BDRip [H.264 / 1080p] (Сезон 1, серии 1-11 из 11) Сыендук [EN Sub] скачать через торрент бесплатно

        (скачиваний: 46)
        Фиксики против Кработов (2019) WEB-DL [H.264 / 1080p-LQ]

        (скачиваний: 32)
        Свинка Пеппа / Peppa Pig (2004-2012) SATRip (1-4 сезоны: 208 серий из 209) скачать через торрент бесплатно

        (скачиваний: 28)
        Рик и Морти / Rick and Morty (2017) WEBRip [H.264 / 720p-LQ] (Сезон 3, серии 1 из ) Сыендук

        (скачиваний: 26)
        Жила-была царевна (2015-2019) WEB-DLRip [H.264 / 720p-LQ] (сезон 1, серии 1-18 из 26) [Обновляемая]

        (скачиваний: 21)