ВАЖНО! Сайт скоро заблокируют! Подписывайся на наш канал в Telegram https://t.me/torrentok и получи доступ к торрентам без ограничений!
.
Авторизация | Регистрация
bitok.xyz
Торрент скачать бесплатно Мультфильмы торрент скачать ВАЛЛ·И / WALL·E (2008) UHD BDRemux [H.265 / 2160p] [4K, HDR, 10-bit] торрент скачать бесплатно


    ВАЛЛ·И / WALL·E (2008) UHD BDRemux [H.265 / 2160p] [4K, HDR, 10-bit] торрент скачать бесплатно

    Дата: 27-02-2020, 05:00 | .torrent скачали: 0

    ВАЛЛ·И / WALL·E (2008) UHD BDRemux [H.265 / 2160p] [4K, HDR, 10-bit]Производство: США/FortyFour Studios, Pixar Animation Studios, Walt Disney Pictures
    Жанр: Мультфильм, фантастика, приключения, семейный
    Режиссер: Эндрю Стэнтон

    Описание

    Робот ВАЛЛ·И из года в год прилежно трудится на опустевшей Земле, очищая нашу планету от гор мусора, которые оставили после себя улетевшие в космос люди. Он и не представляет, что совсем скоро произойдут невероятные события, благодаря которым он встретит друзей, поднимется к звездам и даже сумеет изменить к лучшему своих бывших хозяев, совсем позабывших родную Землю.

    Возраст: 0+ (для любой зрительской аудитории)
    Рейтинг MPAA: G (нет возрастных ограничений)
    Дата мировой премьеры: 21 июня 2008
    Дата российской премьеры: 3 июля 2008, BVSPR
    Релиз от: seleZen
    Продолжительность: 01: 38: 42
    Качество видео: UHD BDRemux
    Язык озвучки: Русский, украинский, английский
    Перевод: Дублированный (Лицензия)
    Субтитры: Русские (Full), украинские (Full), английские
    Видео: HEVC/H.265, 3840x2160, ~41.1 Mbps
    Аудио 1: AC3, 6 ch, 640 Kbps - Русский дубляж
    Аудио 2: AC3, 6 ch, 384 Kbps - Украинский дубляж
    Аудио 3: TrueHD, 8 ch, 7237 Kbps - Английский
    Аудио 4: AC3, 6 ch, 640 Kbps - АнглийскийGeneral
    Unique ID : 238397712420338103561678759830758181218 (0xB359BAB38F77CE6CA97B7355DEA94962)
    Complete name : WALL-E.2008.BDREMUX.2160p.HDR.seleZen.mkv
    Format : Matroska
    Format version : Version 4
    File size : 34.5 GiB
    Duration : 1 h 38 min
    Overall bit rate mode : Variable
    Overall bit rate : 50.1 Mb/s
    Movie name : WALL-E 2008 from селезень
    Encoded date : UTC 2020-02-26 11: 08: 10
    Writing application : mkvmerge v40.0.0 (\'Old Town Road + Pony\') 64-bit
    Writing library : libebml v1.3.9 + libmatroska v1.5.2
    Video
    ID : 1
    Format : HEVC
    Format/Info : High Efficiency Video Coding
    Format profile : Main10@L5.1@High
    HDR format : SMPTE ST 2086, HDR10 compatible
    Codec ID : V_MPEGH/ISO/HEVC
    Duration : 1 h 38 min
    Bit rate : 41.1 Mb/s
    Width : 3 840 pixels
    Height : 2 160 pixels
    Display aspect ratio : 16: 9
    Frame rate mode : Constant
    Frame rate : 23.976 (24000/1001) FPS
    Color space : YUV
    Chroma subsampling : 4: 2: 0 (Type 2)
    Bit depth : 10 bits
    Bits/(Pixel*Frame) : 0.207
    Stream size : 28.3 GiB (82%)
    Writing library : ATEME Titan File 3.9.0 (4.9.0.0)
    Language : English
    Default : Yes
    Forced : No
    Color range : Limited
    Color primaries : BT.2020
    Transfer characteristics : PQ
    Matrix coefficients : BT.2020 non-constant
    Mastering display color pri : Display P3
    Mastering display luminance : min: 0.0000 cd/m2, max: 1000 cd/m2
    Audio #1
    ID : 2
    Format : AC-3
    Format/Info : Audio Coding 3
    Commercial name : Dolby Digital
    Codec ID : A_AC3
    Duration : 1 h 37 min
    Bit rate mode : Constant
    Bit rate : 640 kb/s
    Channel(s) : 6 channels
    Channel layout : L R C LFE Ls Rs
    Sampling rate : 48.0 kHz
    Frame rate : 31.250 FPS (1536 SPF)
    Compression mode : Lossy
    Stream size : 446 MiB (1%)
    Title : Dub License
    Language : Russian
    Service kind : Complete Main
    Default : Yes
    Forced : Yes
    Audio #2
    ID : 3
    Format : AC-3
    Format/Info : Audio Coding 3
    Commercial name : Dolby Digital
    Codec ID : A_AC3
    Duration : 1 h 37 min
    Bit rate mode : Constant
    Bit rate : 384 kb/s
    Channel(s) : 6 channels
    Channel layout : L R C LFE Ls Rs
    Sampling rate : 48.0 kHz
    Frame rate : 31.250 FPS (1536 SPF)
    Compression mode : Lossy
    Stream size : 267 MiB (1%)
    Language : Ukrainian
    Service kind : Complete Main
    Default : No
    Forced : No
    Audio #3
    ID : 4
    Format : MLP FBA 16-ch
    Format/Info : Meridian Lossless Packing FBA with 16-channel presentation
    Commercial name : Dolby TrueHD with Dolby Atmos
    Codec ID : A_TRUEHD
    Duration : 1 h 38 min
    Bit rate mode : Variable
    Bit rate : 7 237 kb/s
    Maximum bit rate : 8 217 kb/s
    Channel(s) : 8 channels
    Channel layout : L R C LFE Ls Rs Lb Rb
    Sampling rate : 48.0 kHz
    Frame rate : 1 200.000 FPS (40 SPF)
    Compression mode : Lossless
    Stream size : 4.99 GiB (14%)
    Title : Original
    Language : English
    Default : No
    Forced : No
    Number of dynamic objects : 13
    Bed channel count : 1 channel
    Bed channel configuration : LFE
    Audio #4
    ID : 5
    Format : AC-3
    Format/Info : Audio Coding 3
    Commercial name : Dolby Digital
    Codec ID : A_AC3
    Duration : 1 h 38 min
    Bit rate mode : Constant
    Bit rate : 640 kb/s
    Channel(s) : 6 channels
    Channel layout : L R C LFE Ls Rs
    Sampling rate : 48.0 kHz
    Frame rate : 31.250 FPS (1536 SPF)
    Compression mode : Lossy
    Stream size : 452 MiB (1%)
    Language : English
    Service kind : Complete Main
    Default : No
    Forced : No
    Text #1
    ID : 6
    Format : UTF-8
    Codec ID : S_TEXT/UTF8
    Codec ID/Info : UTF-8 Plain Text
    Duration : 1 h 25 min
    Bit rate : 33 b/s
    Count of elements : 482
    Stream size : 21.3 KiB (0%)
    Title : Full
    Language : Russian
    Default : No
    Forced : No
    Text #2
    ID : 7
    Format : UTF-8
    Codec ID : S_TEXT/UTF8
    Codec ID/Info : UTF-8 Plain Text
    Duration : 1 h 27 min
    Bit rate : 35 b/s
    Count of elements : 519
    Stream size : 22.7 KiB (0%)
    Title : Full
    Language : Ukrainian
    Default : No
    Forced : No
    Text #3
    ID : 8
    Format : UTF-8
    Codec ID : S_TEXT/UTF8
    Codec ID/Info : UTF-8 Plain Text
    Duration : 1 h 35 min
    Bit rate : 29 b/s
    Count of elements : 794
    Stream size : 20.7 KiB (0%)
    Title : Full
    Language : English
    Default : No
    Forced : No
    Text #4
    ID : 9
    Format : UTF-8
    Codec ID : S_TEXT/UTF8
    Codec ID/Info : UTF-8 Plain Text
    Duration : 1 h 35 min
    Bit rate : 43 b/s
    Count of elements : 1361
    Stream size : 30.5 KiB (0%)
    Title : SDH
    Language : English
    Default : No
    Forced : No
    Menu
    00: 00: 00.000 : en: Глава 01
    00: 03: 36.967 : en: Глава 02
    00: 05: 50.350 : en: Глава 03
    00: 09: 19.434 : en: Глава 04
    00: 12: 04.098 : en: Глава 05
    00: 17: 57.118 : en: Глава 06
    00: 19: 34.048 : en: Глава 07
    00: 21: 10.811 : en: Глава 08
    00: 23: 47.468 : en: Глава 09
    00: 29: 18.673 : en: Глава 10
    00: 31: 25.759 : en: Глава 11
    00: 33: 28.423 : en: Глава 12
    00: 35: 20.785 : en: Глава 13
    00: 38: 50.203 : en: Глава 14
    00: 42: 54.196 : en: Глава 15
    00: 43: 32.318 : en: Глава 16
    00: 51: 09.608 : en: Глава 17
    00: 52: 08.250 : en: Глава 18
    00: 54: 48.118 : en: Глава 19
    00: 56: 06.446 : en: Глава 20
    00: 57: 58.683 : en: Глава 21
    00: 58: 41.851 : en: Глава 22
    01: 02: 15.565 : en: Глава 23
    01: 03: 21.714 : en: Глава 24
    01: 05: 50.363 : en: Глава 25
    01: 11: 45.551 : en: Глава 26
    01: 15: 54.883 : en: Глава 27
    01: 19: 23.467 : en: Глава 28
    01: 20: 15.352 : en: Глава 29
    01: 24: 14.758 : en: Глава 30
    01: 25: 46.433 : en: Глава 31
    01: 30: 18.162 : en: Глава 32

    Онлайн видео ВАЛЛ·И


    ВАЛЛ·И / WALL·E (2008) UHD BDRemux [H.265 / 2160p] [4K, HDR, 10-bit] торрент скачать бесплатно
    Рейтинг →
     (голосов: 1, оценка 4/5, голосовать можно 1 раз )

    Другие торренты по теме:

  • ВАЛЛ·И / WALL·E (2008) BDRip [720p]
  • ВАЛЛ·И / WALL·E (2008) BDRip [H.264]
  • ВАЛЛ·И / WALL·E (2008) BDRip [1080p]
  • ВАЛЛ·И / WALL·E (2008) BDRip
  • Thomas Newman and VA - ВАЛЛ-И / WALL-E (2008) [AAC|WEB-DL|256 кб / с]<Score> скачать через торрент бесплатно
  • ВАЛЛ-И / WALL-E (2008) [H.264 / 720p] [hand made 60fps] скачать через торрент бесплатно
  • ВАЛЛ·И / WALL·E (2008) BDRip скачать через торрент бесплатно
  • ВАЛЛ·И / WALL·E (2008) BDRip [H.264] скачать через торрент бесплатно


    • Комментарии (0):

      Информация

      Информация

        Посетители, находящиеся в группе Гости, не могут оставлять комментарии в данной новости.

        ↓ Меню




        Популярное

        Роботы-пожарные / Fire Robo (2016) WEB-DLRip [H.264 / 720p-LQ] (сезон 1, серии 1-26 из 26) [Обновляемая]

        (скачиваний: 5)
        Сергей Матвеев | Полный курс английского языка для лентяев (2016) [PDF]

        (скачиваний: 4)
        Жила-была царевна (2015-2019) WEB-DLRip [H.264 / 720p-LQ] (сезон 1, серии 1-18 из 26) [Обновляемая]

        (скачиваний: 3)
        Gekijouban KanColle | Kantai Collection Movie | Fleet Girls Collection: Movie Sequence| Коллекционная флотилия на большом экране [2016, Movie] BDrip 720p 10bit raw

        (скачиваний: 3)
        Роберт Кийосаки | Богатый папа, бедный папа для подростков (2014) [PDF, FB2]

        (скачиваний: 3)
        Серия книг | Образовательная манга (2010 - 2015) [PDF]

        (скачиваний: 3)
        Анна Зайцева, Анастасия Дубасова | Чудесный пластилин: лепим вместе с детьми (2011) [PDF]

        (скачиваний: 2)
        Королевская академия / Regal Academy (2016) SATRip [H.264] (Сезон 1, 26 серий из 26) [UKR]

        (скачиваний: 2)
        Свинка Пеппа / Peppa Pig (2004-2012) SATRip (1-4 сезоны: 208 серий из 209) скачать через торрент бесплатно

        (скачиваний: 2)
        Металионы / Metalions (2018-2019) WEB-DLRip [H.264 / 720p-LQ] (сезон 1, серии 1-52 из 52) [Обновляемая]

        (скачиваний: 2)