ВАЖНО! Сайт скоро заблокируют! Подписывайся на наш канал в Telegram https://t.me/torrentok и получи доступ к торрентам без ограничений!
.
Авторизация | Регистрация
bitok.xyz
Торрент скачать бесплатно Мультфильмы торрент скачать Южный Парк / South Park (2019) WEBRip [H.264 / 1080p-LQ] (Сезон 23, Серии 1-10 из 10) TVShows торрент скачать бесплатно


    Южный Парк / South Park (2019) WEBRip [H.264 / 1080p-LQ] (Сезон 23, Серии 1-10 из 10) TVShows торрент скачать бесплатно

    Дата: 29-02-2020, 05:00 | .torrent скачали: 2

    Южный Парк / South Park (2019) WEBRip [H.264 / 1080p-LQ] (Сезон 23, Серии 1-10 из 10) TVShowsПроизводство: США, Braniff, Comedy Central, Comedy Partners
    Жанр: Для взрослых, Комедия, Мультфильм
    Режиссер: Трей Паркер, Эрик Сточ, Мэтт Стоун

    Описание

    Южный Парк/South Park — американский мультсериал, созданный Мэттом Стоуном и Треем Паркером. Иногда название переводится также как Саут-Парк или Саус-Парк. Выпускается кабельным телеканалом Comedy Central с 1997 года. Основу сюжета составляют приключения четырёх мальчиков и их друзей, живущих в маленьком городке Саут-Парк, штат Колорадо. Сериал высмеивает недостатки американской культуры и текущие мировые события, а также подвергает критике множество глубоких убеждений и табу посредством пародии и чёрного юмора. Южный Парк выходит поздно вечером и позиционируется как мультфильм для взрослых.

    Возраст: 18+ (зрителям, достигшим 18 лет. запрещено для детей)
    Рейтинг MPAA: R (лицам до 17 лет обязательно присутствие взрослого)
    Продолжительность: ~00: 23: 00 Серия
    Качество видео: WEBRip
    Перевод: Дублированный (TVShows)
    Субтитры: Английские
    Видео: AVC/H.264, 1920x1080, ~5000 Kbps
    Аудио#1: AC3, 2 ch, 192 Kbps | Русский
    Аудио#2: AAC, 2 ch, 256 Kbps | Английский
    General
    Unique ID : 102176493488771965930353613988568086898 (0x4CDE7A125572D6A9BA01D4B63D9DB972)
    Complete name : D: TorrentDownloadSouth.Park.S23.1080p.TVShowsSouth Park S23 E1.mkv
    Format : Matroska
    Format version : Version 4
    File size : 714 MiB
    Duration : 22 min 28 s
    Overall bit rate : 4 443 kb/s
    Encoded date : UTC 2020-02-28 16: 22: 15
    Writing application : mkvmerge v43.0.0 (\'The Quartermaster\') 64-bit
    Writing library : libebml v1.3.10 + libmatroska v1.5.2
    Cover : Yes
    Attachments : cover.jpg
    Video
    ID : 1
    Format : AVC
    Format/Info : Advanced Video Codec
    Format profile : High@L4
    Format settings : CABAC/4 Ref Frames
    Format settings, CABAC : Yes
    Format settings, Reference frames : 4 frames
    Codec ID : V_MPEG4/ISO/AVC
    Duration : 22 min 28 s
    Bit rate : 3 991 kb/s
    Nominal bit rate : 5 000 kb/s
    Width : 1 920 pixels
    Height : 1 080 pixels
    Display aspect ratio : 16: 9
    Frame rate mode : Constant
    Frame rate : 23.976 (24000/1001) FPS
    Color space : YUV
    Chroma subsampling : 4: 2: 0
    Bit depth : 8 bits
    Scan type : Progressive
    Bits/(Pixel*Frame) : 0.080
    Stream size : 641 MiB (90%)
    Writing library : x264 core 157 r2969 d4099dd
    Encoding settings : cabac=1/ref=3/deblock=1: -3: -3/analyse=0x3: 0x113/me=dia/subme=5/psy=1/psy_rd=1.00: 0.00/mixed_ref=1/me_range=8/chroma_me=1/trellis=1/8x8dct=1/cqm=0/deadzone=21, 11/fast_pskip=1/chroma_qp_offset=0/threads=9/lookahead_threads=2/sliced_threads=0/nr=0/decimate=1/interlaced=0/bluray_compat=0/constrained_intra=0/bframes=3/b_pyramid=2/b_adapt=0/b_bias=0/direct=3/weightb=1/open_gop=0/weightp=0/keyint=240/keyint_min=24/scenecut=40/intra_refresh=0/rc_lookahead=40/rc=cbr/mbtree=1/bitrate=5000/ratetol=1.0/qcomp=0.60/qpmin=0/qpmax=69/qpstep=4/vbv_maxrate=5000/vbv_bufsize=3571/nal_hrd=none/filler=0/ip_ratio=1.40/aq=1: 1.00
    Default : Yes
    Forced : No
    Color range : Limited
    Color primaries : BT.709
    Transfer characteristics : BT.709
    Matrix coefficients : BT.709
    Audio #1
    ID : 2
    Format : AAC LC
    Format/Info : Advanced Audio Codec Low Complexity
    Codec ID : A_AAC-2
    Duration : 22 min 28 s
    Bit rate : 192 kb/s
    Channel(s) : 2 channels
    Channel layout : L R
    Sampling rate : 48.0 kHz
    Frame rate : 46.875 FPS (1024 SPF)
    Compression mode : Lossy
    Stream size : 30.9 MiB (4%)
    Title : TVShows
    Language : Russian
    Default : Yes
    Forced : No
    Audio #2
    ID : 3
    Format : AAC LC
    Format/Info : Advanced Audio Codec Low Complexity
    Codec ID : A_AAC-2
    Duration : 22 min 28 s
    Bit rate : 256 kb/s
    Channel(s) : 2 channels
    Channel layout : L R
    Sampling rate : 48.0 kHz
    Frame rate : 46.875 FPS (1024 SPF)
    Compression mode : Lossy
    Stream size : 41.2 MiB (6%)
    Title : Original
    Language : English
    Default : No
    Forced : No
    Text
    ID : 4
    Format : UTF-8
    Codec ID : S_TEXT/UTF8
    Codec ID/Info : UTF-8 Plain Text
    Duration : 22 min 16 s
    Bit rate : 106 b/s
    Count of elements : 539
    Stream size : 17.4 KiB (0%)
    Title : English
    Language : English
    Default : No
    Forced : No

    Скриншоты для ознакомления



    Все одноименные релизы в Клубе
    Время раздачи: с 10: 00 до 1: 30 (до появления первых 3-5 скачавших)

    Онлайн видео Южный Парк


    Южный Парк / South Park (2019) WEBRip [H.264 / 1080p-LQ] (Сезон 23, Серии 1-10 из 10) TVShows торрент скачать бесплатно
    Рейтинг →
     (голосов: 1, оценка 3/5, голосовать можно 1 раз )

    Другие торренты по теме:

  • Южный Парк / South Park (1997-2010) DVDRip / WebDL (17 сезонов + самые первые серии + полнометражный мультфильм) скачать через торрент бесплатно
  • Южный парк / South park (2013) HDRip [Сезон 17, 10 серий из 10] (Comedy central) скачать через торрент бесплатно
  • Южный парк / South park (2014) HDRip [Сезон 18, 10 серий из 10] (Paramount comedy)
  • Южный парк - сломанный, но целый / South Park - The Fractured but Whole (2016) HDRip [H.264 / 720p-LQ] [Трейлер] скачать через торрент бесплатно
  • Южный Парк / South Park (2015) WEB-DL [H.264 / 720p] (19 сезон, серия 01 из 10) [DVO Кубик в Кубе] скачать через торрент бесплатно
  • Южный Парк / South Park (2015) WEB-DLRip (19 сезон, серия 01 из 10) [DVO Кубик в Кубе] скачать через торрент бесплатно
  • Южный Парк / South Park (2015) HDTVRip [H.264 / 720p-LQ] (19 сезон, серия 01-10 из 10) Jaskier скачать через торрент бесплатно
  • Южный Парк: Полная Коллекция / South Park: Complete Colection (1997-2015) WEB-DLRip [H.264] (сезон 1-19, серии 1-267 из 267) (MTV|Кубик в Кубе) [MP4|1080p] [Rus / Eng Sub]


    • Комментарии (0):

      Информация

      Информация

        Посетители, находящиеся в группе Гости, не могут оставлять комментарии в данной новости.

        ↓ Меню




        Популярное

        Металионы / Metalions (2018-2019) WEB-DLRip [H.264 / 720p-LQ] (сезон 1, серии 1-52 из 52) [Обновляемая]

        (скачиваний: 11)
        Фиксики против Кработов (2019) WEB-DL [H.264 / 1080p-LQ]

        (скачиваний: 10)
        Роботы-пожарные / Fire Robo (2016) WEB-DLRip [H.264 / 720p-LQ] (сезон 1, серии 1-26 из 26) [Обновляемая]

        (скачиваний: 8)
        Фиксики против Кработов (2019) WEB-DLRip

        (скачиваний: 7)
        Жила-была царевна (2015-2019) WEB-DLRip [H.264 / 720p-LQ] (сезон 1, серии 1-18 из 26) [Обновляемая]

        (скачиваний: 7)
        Лея Уотерс | Переключение на силу. Как научиться видеть в детях сильные стороны, чтобы помочь им расцвести (2019) [EPUB]

        (скачиваний: 5)
        Kaze no Na wa Amnesia / A Wind Named Amnesia / Ветер амнезии [1990, MV] DVDRip raw

        (скачиваний: 5)
        Канакина В. П., Горецкий В. Г. Электронное приложение к учебнику «Русский язык», 2 класс (2012) [ISO] скачать через торрент бесплатно

        (скачиваний: 5)
        Александр Нилл | Воспитание свободой. Школа Саммерхилл (2020) [EPUB]

        (скачиваний: 5)
        Роберт Кийосаки | Богатый папа, бедный папа для подростков (2014) [PDF, FB2]

        (скачиваний: 5)