ВАЖНО! Сайт скоро заблокируют! Подписывайся на наш канал в Telegram https://t.me/torrentok и получи доступ к торрентам без ограничений!
.
Авторизация | Регистрация
bitok.xyz
Торрент скачать бесплатно Мультфильмы торрент скачать Меч победы / Женіс семсері (2012) WEB-DLRip торрент скачать бесплатно


    Меч победы / Женіс семсері (2012) WEB-DLRip торрент скачать бесплатно

    Дата: 29-02-2020, 05:00 | .torrent скачали: 0

    Меч победы / Женіс семсері (2012) WEB-DLRipПроизводство: Казахстан/Студия Казахфильм
    Жанр: Фэнтези, приключения, детский
    Режиссер: Ася Сулеева, Ануар Райбаев

    Актеры
    Ержан Нурымбет, Динмухаммед Садибеков, Азиз Бейшеналиев, Бата, Болат Калымбетов, Жайдарбек Кунгужинов

    Описание

    Школьник-непоседа Айтуар находит на окраине поселка загадочный старинный меч. Мальчик и не представляет, каким невероятным приключением обернется для него эта находка. В поисках меча в современный мир попадает батыр Арыстан, хозяин боевого артефакта, а за ним вдогонку появляется и вражеский отряд преследователей. Здесь, в нашем мире, они вступят в решающую схватку за драгоценный меч. Ведь он наделен особой силой — устрашает врагов, и лишь достойному дарит победу.

    Релиз от: Алехаndr
    Продолжительность: 01: 39: 50
    Качество видео: WEB-DLRip
    Язык озвучки: Русский, казахский
    Субтитры: Отсутствуют
    Видео: Xvid, 720x400 (16: 9), ~1760 Kbps
    Аудио: AC3, 2 ch, 192 Kbps
    Общее
    Полное имя : D: Меч победы (2012).by.Алехаndr.avi
    Формат : AVI
    Формат/Информация : Audio Video Interleave
    Профиль формата : OpenDML
    Размер файла : 1, 37 Гбайт
    Продолжительность : 1 ч. 39 м.
    Общий поток : 1963 Кбит/сек
    Программа кодирования : Lavf58.20.100
    Видео
    Идентификатор : 0
    Формат : MPEG-4 Visual
    Профиль формата : Advanced Simple@L5
    Настройки формата : BVOP2
    Параметр BVOP формата : 2
    Параметр QPel формата : Нет
    Параметр GMC формата : Без точки перехода
    Параметр матрицы формата : Default (MPEG)
    Идентификатор кодека : XVID
    Идентификатор кодека/Подсказка : XviD
    Продолжительность : 1 ч. 39 м.
    Битрейт : 1759 Кбит/сек
    Ширина : 720 пикселей
    Высота : 400 пикселей
    Соотношение сторон : 16: 9
    Частота кадров : 24, 000 кадра/сек
    Цветовое пространство : YUV
    Субдискретизация насыщенности : 4: 2: 0
    Битовая глубина : 8 бит
    Тип развёртки : Прогрессивная
    Метод сжатия : С потерями
    Бит/(Пиксели*Кадры) : 0.254
    Размер потока : 1, 23 Гбайт (90%)
    Библиотека кодирования : XviD 67
    Аудио
    Идентификатор : 1
    Формат : AC-3
    Формат/Информация : Audio Coding 3
    Коммерческое название : Dolby Digital
    Идентификатор кодека : 2000
    Продолжительность : 1 ч. 39 м.
    Вид битрейта : Постоянный
    Битрейт : 192 Кбит/сек
    Каналы : 2 канала
    ChannelLayout : L R
    Частота : 48, 0 КГц
    Частота кадров : 31, 250 кадров/сек (1536 SPF)
    Битовая глубина : 16 бит
    Метод сжатия : С потерями
    Размер потока : 137 Мбайт (10%)
    Выравнивание : Соединение по промежуткам
    Продолжительность промежутка : 32 мс. (0, 77 видеокадр)
    ServiceKind/String : Complete Main

    Скриншоты для ознакомления



    Все одноименные релизы в Клубе
    Время раздачи: 24/7 (круглосуточно) (до появления первых 3-5 скачавших)

    Онлайн видео Меч победы


    Меч победы / Женіс семсері (2012) WEB-DLRip торрент скачать бесплатно
    Рейтинг →
     (голосов: 1, оценка 5/5, голосовать можно 1 раз )

    Другие торренты по теме:

  • Парад Победы, посвященный 71-ой годовщине Победы в ВОВ 1941-1945г., Волгоград (2016.05.09) SATRip
  • Парад Победы, посвященный 71-ой годовщине Победы в ВОВ 1941-1945г., Грозный (2016.05.09) SATRip
  • Парад Победы, посвященный 71-ой годовщине Победы в ВОВ 1941-1945г., Калининград (2016.05.09) WEBRip
  • Парад Победы, посвященный 71-ой годовщине Победы в ВОВ 1941-1945г., Донецк (2016.05.09) WEBRip
  • Парад Победы, посвященный 71-ой годовщине Победы в ВОВ 1941-1945г., Санкт-Петербург. Дворцовая площадь (2016.05.09) HDTVRip [H.264 / 720p-LQ] [Life78]
  • Парад Победы, посвященный 71-ой годовщине Победы в ВОВ 1941-1945г., Санкт-Петербург. Дворцовая площадь (2016.05.09) SATRip [Life78]
  • Парад Победы, посвященный 71-ой годовщине Победы в ВОВ 1941-1945г., Москва (2016.05.09) HDTVRip [Россия HD]
  • Парад Победы, посвященный 71-ой годовщине Победы в ВОВ 1941-1945г., Москва (2016.05.09) HDTVRip [H.264 / 720p-LQ] [Россия HD]


    • Комментарии (0):

      Информация

      Информация

        Посетители, находящиеся в группе Гости, не могут оставлять комментарии в данной новости.

        ↓ Меню




        Популярное

        Роботы-пожарные / Fire Robo (2016) WEB-DLRip [H.264 / 720p-LQ] (сезон 1, серии 1-26 из 26) [Обновляемая]

        (скачиваний: 6)
        Лея Уотерс | Переключение на силу. Как научиться видеть в детях сильные стороны, чтобы помочь им расцвести (2019) [EPUB]

        (скачиваний: 5)
        Жила-была царевна (2015-2019) WEB-DLRip [H.264 / 720p-LQ] (сезон 1, серии 1-18 из 26) [Обновляемая]

        (скачиваний: 5)
        Сергей Матвеев | Полный курс английского языка для лентяев (2016) [PDF]

        (скачиваний: 5)
        Алексей Марков | Хулиганская экономика. Финансовые рынки для хулиганов и их родителей (2019) [EPUB]

        (скачиваний: 4)
        Металионы / Metalions (2018-2019) WEB-DLRip [H.264 / 720p-LQ] (сезон 1, серии 1-52 из 52) [Обновляемая]

        (скачиваний: 4)
        Александр Нилл | Воспитание свободой. Школа Саммерхилл (2020) [EPUB]

        (скачиваний: 4)
        Серия книг | Образовательная манга (2010 - 2015) [PDF]

        (скачиваний: 4)
        Мариэтта Чудакова | Рассказы про Россию. 1861—1922 (2020) [EPUB]

        (скачиваний: 3)
        Gekijouban KanColle | Kantai Collection Movie | Fleet Girls Collection: Movie Sequence| Коллекционная флотилия на большом экране [2016, Movie] BDrip 720p 10bit raw

        (скачиваний: 3)